找回密码

蓝光电影网

查看: 74|回复: 0

[动作] 黑钱飞机 Money.Plane.2020.1080p.BluRay.REMUX.AVC.DD5.1-FGT 15.05GB

[复制链接]
蓝光币
519
发表于 2021-3-26 10:02:37 | 显示全部楼层 |阅读模式


◎译  名 陋规飞机
◎片  名 Money Plane
◎年  代 2020
◎产  地 美国
◎类  别 行动
◎语  言 英语
◎上映日期 2020-07-10(美国)
◎IMDb评分  3.2/10 from 1623 users
◎IMDb链接  https://www.imdb.com/title/tt7286966/
◎豆瓣评分 3.7/10 from 97 users
◎豆瓣链接 https://movie.douban.com/subject/34938534/
◎导  演 安德鲁·劳伦斯 Andrew Lawrence
◎编  剧 安德鲁·劳伦斯 Andrew Lawrence / 泰勒·科尼 Tyler W. Konney
◎主  演 丹妮丝·理查兹 Denise Richards
       托马斯·简 Thomas Jane
       马修·劳伦斯 Matthew Lawrence
       约瑟夫·劳伦斯 Joseph Lawrence
       安德鲁·劳伦斯 Andrew Lawrence
       艾吉 Adam Copeland
       阿尔·萨皮恩扎 Al Sapienza
       凯尔希·格兰莫 Kelsey Grammer
       Candi Brooks
◎标  签 美国电影 | 行动 | 犯罪 | 2020 | 剧情 | watchlist | kels | 电影
◎简  介


  A professional thief with $40 million in debt and his family's life on the line must commit one final heist - rob a futuristic airborne casino filled with the world's most dangerous criminals.
  1. Video
  2. ID                                       : 1
  3. ID in the original source medium         : 4113 (0x1011)
  4. Format                                   : AVC
  5. Format/Info                              : Advanced Video Codec
  6. Format profile                           : [email protected]
  7. Format settings                          : CABAC / 3 Ref Frames
  8. Format settings, CABAC                   : Yes
  9. Format settings, Reference frames        : 3 frames
  10. Format settings, GOP                     : M=3, N=12
  11. Codec ID                                 : V_MPEG4/ISO/AVC
  12. Duration                                 : 1 h 22 min
  13. Bit rate mode                            : Variable
  14. Bit rate                                 : 25.8 Mb/s
  15. Maximum bit rate                         : 35.0 Mb/s
  16. Width                                    : 1 920 pixels
  17. Height                                   : 1 080 pixels
  18. Display aspect ratio                     : 16:9
  19. Frame rate mode                          : Constant
  20. Frame rate                               : 23.976 (24000/1001/189150) FPS
  21. Standard                                 : NTSC
  22. Color space                              : YUV
  23. Chroma subsampling                       : 4:2:0
  24. Bit depth                                : 8 bits
  25. Scan type                                : Progressive
  26. Bits/(Pixel*Frame)                       : 0.519
  27. Stream size                              : 14.8 GiB (98%)
  28. Language                                 : English
  29. Default                                  : No
  30. Forced                                   : No
  31. Color range                              : Limited
  32. Color primaries                          : BT.709
  33. Transfer characteristics                 : BT.709
  34. Matrix coefficients                      : BT.709
  35. Original source medium                   : Blu-ray
  36. Audio
  37. ID                                       : 2
  38. ID in the original source medium         : 4352 (0x1100)
  39. Format                                   : AC-3
  40. Format/Info                              : Audio Coding 3
  41. Commercial name                          : Dolby Digital
  42. Codec ID                                 : A_AC3
  43. Duration                                 : 1 h 22 min
  44. Bit rate mode                            : Constant
  45. Bit rate                                 : 448 kb/s
  46. Channel(s)                               : 6 channels
  47. Channel layout                           : L R C LFE Ls Rs
  48. Sampling rate                            : 48.0 kHz
  49. Frame rate                               : 31.250 FPS (1536 SPF)
  50. Compression mode                         : Lossy
  51. Stream size                              : 263 MiB (2%)
  52. Title                                    : DD 5.1
  53. Language                                 : English
  54. Service kind                             : Complete Main
  55. Default                                  : Yes
  56. Forced                                   : No
  57. Original source medium                   : Blu-ray
  58. Text #1
  59. ID                                       : 3
  60. Format                                   : UTF-8
  61. Codec ID                                 : S_TEXT/UTF8
  62. Codec ID/Info                            : UTF-8 Plain Text
  63. Duration                                 : 1 h 19 min
  64. Bit rate                                 : 51 b/s
  65. Count of elements                        : 1005
  66. Stream size                              : 30.2 KiB (0%)
  67. Title                                    : SRT
  68. Language                                 : English
  69. Default                                  : Yes
  70. Forced                                   : No
  71. Text #2
  72. ID                                       : 4
  73. ID in the original source medium         : 4608 (0x1200)
  74. Format                                   : PGS
  75. Muxing mode                              : zlib
  76. Codec ID                                 : S_HDMV/PGS
  77. Codec ID/Info                            : Picture based subtitle format used on BDs/HD-DVDs
  78. Duration                                 : 1 h 20 min
  79. Bit rate                                 : 28.9 kb/s
  80. Count of elements                        : 2445
  81. Stream size                              : 16.7 MiB (0%)
  82. Language                                 : English
  83. Default                                  : No
  84. Forced                                   : No
  85. Original source medium                   : Blu-ray
  86. Menu
  87. 00:00:00.000                             : en:Chapter 01
  88. 00:04:41.364                             : en:Chapter 02
  89. 00:10:59.867                             : en:Chapter 03
  90. 00:16:12.805                             : en:Chapter 04
  91. 00:20:46.828                             : en:Chapter 05
  92. 00:24:28.967                             : en:Chapter 06
  93. 00:30:19.067                             : en:Chapter 07
  94. 00:35:18.991                             : en:Chapter 08
  95. 00:40:27.550                             : en:Chapter 09
  96. 00:44:51.438                             : en:Chapter 10
  97. 00:49:54.282                             : en:Chapter 11
  98. 00:54:47.325                             : en:Chapter 12
  99. 01:00:00.930                             : en:Chapter 13
  100. 01:05:41.270                             : en:Chapter 14
  101. 01:11:09.556                             : en:Chapter 15
  102. 01:17:47.579                             : en:Chapter 16
复制代码





                                       
                                       

                                       
                                       
                                       




回复

使用道具 举报

懒得打字嘛,点击右侧快捷回复 【右侧内容,后台自定义】
您需要登录后才可以回帖 登录 | 立即加入

本版积分规则

Archiver|小黑屋| 蓝光电影网 |网站地图

Copyright © 2021 Comsenz Inc. Powered by 蓝光电影网

蓝光电影网

本站内容由用户自主分享和转载自互联网,转载目的在于传递更多信息,并不代表本网赞同其观点和对其真实性负责。

如有侵权、违反国家法律政策行为,请联系我们,我们会第一时间及时清除和处理!

举报反馈邮箱:[email protected]

快速回复 返回顶部 返回列表