找回密码

蓝光电影网

查看: 29|回复: 0

[喜剧] 霹雳火 Thunder.and.Lightning.1977.1080p.BluRay.REMUX.AVC.DTS-HD.MA.2.0-FGT 19.56GB

[复制链接]
蓝光币
515
发表于 2019-7-20 13:07:31 | 显示全部楼层 |阅读模式


◎译  名 轰隆火
◎片  名 Thunder and Lightning
◎年  代 1977
◎产  地 美国
◎类  别 笑剧 / 行动 / 恋爱 / 犯罪 / 冒险
◎语  言 英语 / 西班牙语 / 意大利语
◎上映日期 1977-08-12
◎IMDb评分  5.4/10 from 327 users
◎IMDb链接  http://www.imdb.com/title/tt0076820
◎豆瓣评分 0/10 from 0 users
◎豆瓣链接 https://movie.douban.com/subject/1304419/
◎片  长 95 分钟
◎导  演 Corey Allen
◎编  剧 William Hjortsberg
◎主  演 David Carradine
      Sterling Holloway
      Patrick Cranshaw

◎标  签 行动 | 美国 | 笑剧 | DavidCarradine | 6.4 | 1977 | **
◎简  介  
  暂无相关剧情先容
  1. Video
  2. ID                                       : 1
  3. Format                                   : AVC
  4. Format/Info                              : Advanced Video Codec
  5. Format profile                           : [email protected]
  6. Format settings                          : CABAC / 4 Ref Frames
  7. Format settings, CABAC                   : Yes
  8. Format settings, Reference frames        : 4 frames
  9. Codec ID                                 : V_MPEG4/ISO/AVC
  10. Duration                                 : 1 h 34 min
  11. Bit rate mode                            : Variable
  12. Bit rate                                 : 29.0 Mb/s
  13. Maximum bit rate                         : 35.0 Mb/s
  14. Width                                    : 1 920 pixels
  15. Height                                   : 1 080 pixels
  16. Display aspect ratio                     : 16:9
  17. Frame rate mode                          : Constant
  18. Frame rate                               : 23.976 (24000/1001) FPS
  19. Standard                                 : NTSC
  20. Color space                              : YUV
  21. Chroma subsampling                       : 4:2:0
  22. Bit depth                                : 8 bits
  23. Scan type                                : Progressive
  24. Bits/(Pixel*Frame)                       : 0.584
  25. Stream size                              : 19.1 GiB (98%)
  26. Title                                    : Thunder.and.Lightning.1977.1080p.BluRay.REMUX.AVC.DTS-HD.MA.2.0-FGT
  27. Language                                 : English
  28. Default                                  : No
  29. Forced                                   : No
  30. Color range                              : Limited
  31. Color primaries                          : BT.709
  32. Transfer characteristics                 : BT.709
  33. Matrix coefficients                      : BT.709
  34. Audio
  35. ID                                       : 2
  36. Format                                   : DTS XLL
  37. Format/Info                              : Digital Theater Systems
  38. Commercial name                          : DTS-HD Master Audio
  39. Codec ID                                 : A_DTS
  40. Duration                                 : 1 h 34 min
  41. Bit rate mode                            : Variable
  42. Bit rate                                 : 685 kb/s
  43. Channel(s)                               : 2 channels
  44. Channel layout                           : L R
  45. Sampling rate                            : 48.0 kHz
  46. Frame rate                               : 93.750 FPS (512 SPF)
  47. Bit depth                                : 16 bits
  48. Compression mode                         : Lossless
  49. Stream size                              : 462 MiB (2%)
  50. Title                                    : Thunder.and.Lightning.1977.1080p.BluRay.REMUX.AVC.DTS-HD.MA.2.0-FGT
  51. Language                                 : English
  52. Default                                  : Yes
  53. Forced                                   : No
  54. Text
  55. ID                                       : 3
  56. Format                                   : PGS
  57. Muxing mode                              : zlib
  58. Codec ID                                 : S_HDMV/PGS
  59. Codec ID/Info                            : Picture based subtitle format used on BDs/HD-DVDs
  60. Duration                                 : 1 h 31 min
  61. Bit rate                                 : 25.4 kb/s
  62. Count of elements                        : 2273
  63. Stream size                              : 16.7 MiB (0%)
  64. Title                                    : English-PGS
  65. Language                                 : English
  66. Default                                  : Yes
  67. Forced                                   : No
  68. Menu
  69. 00:00:00.000                             : en:Chapter 01
  70. 00:02:35.655                             : en:Chapter 02
  71. 00:11:10.586                             : en:Chapter 03
  72. 00:18:45.082                             : en:Chapter 04
  73. 00:29:42.697                             : en:Chapter 05
  74. 00:37:32.333                             : en:Chapter 06
  75. 00:48:14.933                             : en:Chapter 07
  76. 00:55:41.421                             : en:Chapter 08
  77. 01:04:29.615                             : en:Chapter 09
  78. 01:15:38.200                             : en:Chapter 10
  79. 01:22:55.845                             : en:Chapter 11
复制代码






                                       
                                       

                                       
                                       
                                       




回复

使用道具 举报

懒得打字嘛,点击右侧快捷回复 【右侧内容,后台自定义】
您需要登录后才可以回帖 登录 | 立即加入

本版积分规则

Archiver|小黑屋| 蓝光电影网 |网站地图

Copyright © 2021 Comsenz Inc. Powered by 蓝光电影网

蓝光电影网

本站内容由用户自主分享和转载自互联网,转载目的在于传递更多信息,并不代表本网赞同其观点和对其真实性负责。

如有侵权、违反国家法律政策行为,请联系我们,我们会第一时间及时清除和处理!

举报反馈邮箱:[email protected]

快速回复 返回顶部 返回列表