找回密码

蓝光电影网

查看: 50|回复: 0

[动作] 超能力截杀/截杀超能战士 Enhanced.2019.1080p.BluRay.REMUX.AVC.DTS-HD.MA.5.1-FGT 14.11GB

[复制链接]
蓝光币
515
发表于 2021-3-11 21:32:10 | 显示全部楼层 |阅读模式


◎译  名 超才能截杀/截杀超能战士
◎片  名 Enhanced
◎年  代 2019
◎产  地 加拿大
◎类  别 行动
◎语  言 英语
◎上映日期 2019-10-24(多伦多可骇电影节)
◎IMDb评分  4.4/10 from 254 users
◎IMDb链接  https://www.imdb.com/title/tt9458062/
◎豆瓣评分 /10 from 0 users
◎豆瓣链接 https://movie.douban.com/subject/32578733/
◎主  演 艾德里安·霍姆斯 Adrian Holmes
       帕特里克·萨邦圭 Patrick Sabongui
       埃尔维斯·斯托克 Elvis Stojko
       斯蒂法诺·迪马特奥 Stefano DiMatteo
       杰夫瑞·R·史姑娘 Jeffrey R. Smith
       阿兰·莫西 Alain Moussi
       凯文·凯斯 Kevan Kase
       George Tchortov
◎标  签 [歐美]
◎简  介


  A young woman with enhanced abilities finds herself hunted down by a sinister government organization. But when an even stronger enhanced serial killer emerges on the scene, agents and mutants are forced to question their allegiances.
  1. Video
  2. ID                                       : 1
  3. ID in the original source medium         : 4113 (0x1011)
  4. Format                                   : AVC
  5. Format/Info                              : Advanced Video Codec
  6. Format profile                           : [email protected]
  7. Format settings                          : CABAC / 2 Ref Frames
  8. Format settings, CABAC                   : Yes
  9. Format settings, Reference frames        : 2 frames
  10. Codec ID                                 : V_MPEG4/ISO/AVC
  11. Duration                                 : 1 h 39 min
  12. Bit rate mode                            : Variable
  13. Bit rate                                 : 18.8 Mb/s
  14. Maximum bit rate                         : 30.2 Mb/s
  15. Width                                    : 1 920 pixels
  16. Height                                   : 1 080 pixels
  17. Display aspect ratio                     : 16:9
  18. Frame rate mode                          : Constant
  19. Frame rate                               : 23.976 (24000/1001/189150) FPS
  20. Color space                              : YUV
  21. Chroma subsampling                       : 4:2:0
  22. Bit depth                                : 8 bits
  23. Scan type                                : Progressive
  24. Bits/(Pixel*Frame)                       : 0.379
  25. Stream size                              : 13.1 GiB (93%)
  26. Language                                 : English
  27. Default                                  : No
  28. Forced                                   : No
  29. Original source medium                   : Blu-ray
  30. Audio
  31. ID                                       : 2
  32. ID in the original source medium         : 4353 (0x1101)
  33. Format                                   : DTS XLL
  34. Format/Info                              : Digital Theater Systems
  35. Commercial name                          : DTS-HD Master Audio
  36. Codec ID                                 : A_DTS
  37. Duration                                 : 1 h 39 min
  38. Bit rate mode                            : Variable
  39. Bit rate                                 : 1 409 kb/s
  40. Channel(s)                               : 6 channels
  41. Channel layout                           : C L R Ls Rs LFE
  42. Sampling rate                            : 48.0 kHz
  43. Frame rate                               : 93.750 FPS (512 SPF)
  44. Bit depth                                : 16 bits
  45. Compression mode                         : Lossless
  46. Stream size                              : 1 006 MiB (7%)
  47. Title                                    : DTS-HD MA 5.1
  48. Language                                 : English
  49. Default                                  : Yes
  50. Forced                                   : No
  51. Original source medium                   : Blu-ray
  52. Menu
  53. 00:00:00.000                             : en:Chapter 01
  54. 00:08:28.090                             : en:Chapter 02
  55. 00:18:38.075                             : en:Chapter 03
  56. 00:31:47.655                             : en:Chapter 04
  57. 00:38:59.837                             : en:Chapter 05
  58. 00:49:57.285                             : en:Chapter 06
  59. 00:57:02.085                             : en:Chapter 07
  60. 01:05:12.366                             : en:Chapter 08
  61. 01:13:08.717                             : en:Chapter 09
  62. 01:18:36.503                             : en:Chapter 10
  63. 01:24:29.898                             : en:Chapter 11
  64. 01:34:16.025                             : en:Chapter 12
复制代码




                                       
                                       

                                       
                                       
                                       




回复

使用道具 举报

懒得打字嘛,点击右侧快捷回复 【右侧内容,后台自定义】
您需要登录后才可以回帖 登录 | 立即加入

本版积分规则

Archiver|小黑屋| 蓝光电影网 |网站地图

Copyright © 2021 Comsenz Inc. Powered by 蓝光电影网

蓝光电影网

本站内容由用户自主分享和转载自互联网,转载目的在于传递更多信息,并不代表本网赞同其观点和对其真实性负责。

如有侵权、违反国家法律政策行为,请联系我们,我们会第一时间及时清除和处理!

举报反馈邮箱:[email protected]

快速回复 返回顶部 返回列表