找回密码

蓝光电影网

查看: 43|回复: 0

[喜剧] 小人物/小秘密 Little.2019.1080p.BluRay.REMUX.AVC.DTS-HD.MA.5.1-FGT 28.15GB

[复制链接]
蓝光币
682
发表于 2019-7-8 13:32:11 | 显示全部楼层 |阅读模式


◎译  名 小人物 / 小奥秘
◎片  名 Little
◎年  代 2019
◎产  地 美国
◎类  别 笑剧
◎语  言 英语
◎上映日期 2019-04-12(美国)
◎IMDb评分  5.3/10 from 3904 users
◎IMDb链接  http://www.imdb.com/title/tt8085790
◎豆瓣评分 5.9/10 from 262 users
◎豆瓣链接 https://movie.douban.com/subject/30268671/
◎片  长 109分钟
◎导  演 蒂娜·戈登·奇兹姆 Tina Gordon Chism
◎编  剧 崔茜·奥利弗 Tracy Oliver / 蒂娜·戈登·奇兹姆 Tina Gordon Chism
◎主  演 雷吉娜·赫尔 Regina Hall
      伊萨·雷 Issa Rae
      马尔赛·马丁 Marsai Martin
      贾斯汀·哈特雷 Justin Hartley
      特雷西·埃利斯·罗斯 Tracee Ellis Ross
      托恩·贝尔 Tone Bell
      麦基·戴 Mikey Day
      JD·麦克拉里 JD McCrary

◎标  签 笑剧 | 美国 | 2019 | 黑人 | 长大 | 黑人笑剧 | 剧情 | 举世
◎简  介  
  当做年的压力变得太大而没法承受时,一个女人就会在她生射中的某个时辰转酿成年轻的自己。
◎获奖情况  
  第28届MTV电影奖(2019)
  MTV电影奖 最好笑剧表演(提名) 马尔赛·马丁

  1. Video
  2. ID                                       : 1
  3. Format                                   : AVC
  4. Format/Info                              : Advanced Video Codec
  5. Format profile                           : [email protected]
  6. Format settings                          : CABAC / 4 Ref Frames
  7. Format settings, CABAC                   : Yes
  8. Format settings, ReFrames                : 4 frames
  9. Codec ID                                 : V_MPEG4/ISO/AVC
  10. Duration                                 : 1 h 48 min
  11. Bit rate mode                            : Variable
  12. Bit rate                                 : 31.8 Mb/s
  13. Maximum bit rate                         : 35.0 Mb/s
  14. Width                                    : 1 920 pixels
  15. Height                                   : 1 080 pixels
  16. Display aspect ratio                     : 16:9
  17. Frame rate mode                          : Constant
  18. Frame rate                               : 23.976 (24000/1001) FPS
  19. Color space                              : YUV
  20. Chroma subsampling                       : 4:2:0
  21. Bit depth                                : 8 bits
  22. Scan type                                : Progressive
  23. Bits/(Pixel*Frame)                       : 0.639
  24. Stream size                              : 24.1 GiB (86%)
  25. Title                                    : Little.2019.1080p.BluRay.REMUX.AVC.DTS-HD.MA.5.1-FGT
  26. Language                                 : English
  27. Default                                  : No
  28. Forced                                   : No
  29. Audio #1
  30. ID                                       : 2
  31. Format                                   : DTS XLL
  32. Format/Info                              : Digital Theater Systems
  33. Commercial name                          : DTS-HD Master Audio
  34. Codec ID                                 : A_DTS
  35. Duration                                 : 1 h 48 min
  36. Bit rate mode                            : Variable
  37. Bit rate                                 : 3 315 kb/s
  38. Channel(s)                               : 6 channels
  39. Channel layout                           : C L R Ls Rs LFE
  40. Sampling rate                            : 48.0 kHz
  41. Frame rate                               : 93.750 FPS (512 SPF)
  42. Bit depth                                : 24 bits
  43. Compression mode                         : Lossless
  44. Stream size                              : 2.52 GiB (9%)
  45. Title                                    : Little.2019.1080p.BluRay.REMUX.AVC.DTS-HD.MA.5.1-FGT
  46. Language                                 : English
  47. Default                                  : Yes
  48. Forced                                   : No
  49. Audio #2
  50. ID                                       : 3
  51. Format                                   : DTS
  52. Format/Info                              : Digital Theater Systems
  53. Codec ID                                 : A_DTS
  54. Duration                                 : 1 h 48 min
  55. Bit rate mode                            : Constant
  56. Bit rate                                 : 768 kb/s
  57. Channel(s)                               : 6 channels
  58. Channel layout                           : C L R Ls Rs LFE
  59. Sampling rate                            : 48.0 kHz
  60. Frame rate                               : 93.750 FPS (512 SPF)
  61. Bit depth                                : 24 bits
  62. Compression mode                         : Lossy
  63. Stream size                              : 598 MiB (2%)
  64. Title                                    : Little.2019.1080p.BluRay.REMUX.AVC.DTS-HD.MA.5.1-FGT
  65. Language                                 : Spanish
  66. Default                                  : No
  67. Forced                                   : No
  68. Audio #3
  69. ID                                       : 4
  70. Format                                   : DTS
  71. Format/Info                              : Digital Theater Systems
  72. Codec ID                                 : A_DTS
  73. Duration                                 : 1 h 48 min
  74. Bit rate mode                            : Constant
  75. Bit rate                                 : 768 kb/s
  76. Channel(s)                               : 6 channels
  77. Channel layout                           : C L R Ls Rs LFE
  78. Sampling rate                            : 48.0 kHz
  79. Frame rate                               : 93.750 FPS (512 SPF)
  80. Bit depth                                : 24 bits
  81. Compression mode                         : Lossy
  82. Stream size                              : 598 MiB (2%)
  83. Title                                    : Little.2019.1080p.BluRay.REMUX.AVC.DTS-HD.MA.5.1-FGT
  84. Language                                 : French
  85. Default                                  : No
  86. Forced                                   : No
  87. Audio #4
  88. ID                                       : 5
  89. Format                                   : AC-3
  90. Format/Info                              : Audio Coding 3
  91. Commercial name                          : Dolby Digital
  92. Codec ID                                 : A_AC3
  93. Duration                                 : 1 h 48 min
  94. Bit rate mode                            : Constant
  95. Bit rate                                 : 192 kb/s
  96. Channel(s)                               : 2 channels
  97. Channel layout                           : L R
  98. Sampling rate                            : 48.0 kHz
  99. Frame rate                               : 31.250 FPS (1536 SPF)
  100. Bit depth                                : 16 bits
  101. Compression mode                         : Lossy
  102. Stream size                              : 149 MiB (1%)
  103. Title                                    : Little.2019.1080p.BluRay.REMUX.AVC.DTS-HD.MA.5.1-FGT
  104. Language                                 : English
  105. Service kind                             : Complete Main
  106. Default                                  : No
  107. Forced                                   : No
  108. Audio #5
  109. ID                                       : 6
  110. Format                                   : AC-3
  111. Format/Info                              : Audio Coding 3
  112. Commercial name                          : Dolby Digital
  113. Codec ID                                 : A_AC3
  114. Duration                                 : 1 h 48 min
  115. Bit rate mode                            : Constant
  116. Bit rate                                 : 192 kb/s
  117. Channel(s)                               : 2 channels
  118. Channel layout                           : L R
  119. Sampling rate                            : 48.0 kHz
  120. Frame rate                               : 31.250 FPS (1536 SPF)
  121. Bit depth                                : 16 bits
  122. Compression mode                         : Lossy
  123. Stream size                              : 149 MiB (1%)
  124. Title                                    : Little.2019.1080p.BluRay.REMUX.AVC.DTS-HD.MA.5.1-FGT
  125. Language                                 : English
  126. Service kind                             : Complete Main
  127. Default                                  : No
  128. Forced                                   : No
  129. Text #1
  130. ID                                       : 7
  131. Format                                   : UTF-8
  132. Codec ID                                 : S_TEXT/UTF8
  133. Codec ID/Info                            : UTF-8 Plain Text
  134. Duration                                 : 1 h 42 min
  135. Bit rate                                 : 76 b/s
  136. Count of elements                        : 1967
  137. Stream size                              : 57.1 KiB (0%)
  138. Title                                    : English-SRT
  139. Language                                 : English
  140. Default                                  : Yes
  141. Forced                                   : No
  142. Text #2
  143. ID                                       : 8
  144. Format                                   : PGS
  145. Muxing mode                              : zlib
  146. Codec ID                                 : S_HDMV/PGS
  147. Codec ID/Info                            : Picture based subtitle format used on BDs/HD-DVDs
  148. Duration                                 : 1 h 42 min
  149. Bit rate                                 : 56.5 kb/s
  150. Count of elements                        : 4348
  151. Stream size                              : 41.4 MiB (0%)
  152. Title                                    : English-PGS
  153. Language                                 : English
  154. Default                                  : No
  155. Forced                                   : No
  156. Text #3
  157. ID                                       : 9
  158. Format                                   : PGS
  159. Muxing mode                              : zlib
  160. Codec ID                                 : S_HDMV/PGS
  161. Codec ID/Info                            : Picture based subtitle format used on BDs/HD-DVDs
  162. Duration                                 : 1 h 47 min
  163. Bit rate                                 : 44.8 kb/s
  164. Count of elements                        : 3924
  165. Stream size                              : 34.5 MiB (0%)
  166. Title                                    : Spanish-PGS
  167. Language                                 : Spanish
  168. Default                                  : No
  169. Forced                                   : No
  170. Text #4
  171. ID                                       : 10
  172. Format                                   : PGS
  173. Muxing mode                              : zlib
  174. Codec ID                                 : S_HDMV/PGS
  175. Codec ID/Info                            : Picture based subtitle format used on BDs/HD-DVDs
  176. Duration                                 : 1 h 47 min
  177. Bit rate                                 : 41.9 kb/s
  178. Count of elements                        : 3740
  179. Stream size                              : 32.2 MiB (0%)
  180. Title                                    : French-PGS
  181. Language                                 : French
  182. Default                                  : No
  183. Forced                                   : No
  184. Text #5
  185. ID                                       : 11
  186. Format                                   : PGS
  187. Muxing mode                              : zlib
  188. Codec ID                                 : S_HDMV/PGS
  189. Codec ID/Info                            : Picture based subtitle format used on BDs/HD-DVDs
  190. Duration                                 : 1 h 44 min
  191. Bit rate                                 : 1 255 b/s
  192. Count of elements                        : 126
  193. Stream size                              : 956 KiB (0%)
  194. Title                                    : Spanish-FORCED-PGS
  195. Language                                 : Spanish
  196. Default                                  : No
  197. Forced                                   : No
  198. Text #6
  199. ID                                       : 12
  200. Format                                   : PGS
  201. Muxing mode                              : zlib
  202. Codec ID                                 : S_HDMV/PGS
  203. Codec ID/Info                            : Picture based subtitle format used on BDs/HD-DVDs
  204. Duration                                 : 1 h 47 min
  205. Bit rate                                 : 1 584 b/s
  206. Count of elements                        : 146
  207. Stream size                              : 1.22 MiB (0%)
  208. Title                                    : French-FORCED-PGS
  209. Language                                 : French
  210. Default                                  : No
  211. Forced                                   : No
  212. Menu
  213. 00:00:00.000                             : en:Chapter 01
  214. 00:03:25.788                             : en:Chapter 02
  215. 00:09:27.692                             : en:Chapter 03
  216. 00:15:13.913                             : en:Chapter 04
  217. 00:23:52.180                             : en:Chapter 05
  218. 00:28:11.064                             : en:Chapter 06
  219. 00:32:42.377                             : en:Chapter 07
  220. 00:38:15.960                             : en:Chapter 08
  221. 00:41:50.966                             : en:Chapter 09
  222. 00:46:22.905                             : en:Chapter 10
  223. 00:53:01.344                             : en:Chapter 11
  224. 00:58:11.321                             : en:Chapter 12
  225. 01:03:52.203                             : en:Chapter 13
  226. 01:08:46.580                             : en:Chapter 14
  227. 01:12:19.376                             : en:Chapter 15
  228. 01:20:45.215                             : en:Chapter 16
  229. 01:29:21.356                             : en:Chapter 17
  230. 01:34:23.949                             : en:Chapter 18
  231. 01:39:19.244                             : en:Chapter 19
  232. 01:43:11.476                             : en:Chapter 20
复制代码






                                       
                                       

                                       
                                       
                                       




回复

使用道具 举报

懒得打字嘛,点击右侧快捷回复 【右侧内容,后台自定义】
您需要登录后才可以回帖 登录 | 立即加入

本版积分规则

Archiver|小黑屋| 蓝光电影网 |网站地图

Copyright © 2021 Comsenz Inc. Powered by 蓝光电影网

蓝光电影网

本站内容由用户自主分享和转载自互联网,转载目的在于传递更多信息,并不代表本网赞同其观点和对其真实性负责。

如有侵权、违反国家法律政策行为,请联系我们,我们会第一时间及时清除和处理!

举报反馈邮箱:[email protected]

快速回复 返回顶部 返回列表