找回密码

蓝光电影网

查看: 15|回复: 0

[其他] 咒怨:完结篇/咒怨:最终章 Ju-on.The.Final.Curse.2015.JAPANESE.1080p.BluRay.x264.DTS-WiKi 7.31GB

[复制链接]
蓝光币
511
发表于 2020-9-25 10:02:34 | 显示全部楼层 |阅读模式


◎译  名 咒怨:结束篇/咒怨:终极章
◎片  名 呪怨 ザ?ファイナル
◎年  代 2015
◎产  地 日本
◎类  别 悬疑 / 可骇
◎语  言 日语
◎上映日期 2015-06-20(日本)
◎IMDb评分  4.6/10 from 724 users
◎IMDb链接  https://www.imdb.com/title/tt4458368/
◎豆瓣评分 5.0/10 from 3495 users
◎豆瓣链接 https://movie.douban.com/subject/26328118/
◎片  长 90分钟
◎导  演 落合正幸 Masayuki Ochia
◎编  剧 一濑盛大 Takashige Ichise / 落合正幸 Masayuki Ochia
◎主  演 平爱梨 Airi Taira
       桐山涟 Renn Kiriyama
       小野乃乃香 Nonoka Ono
       柳百合菜 Yurina Yanagi
       松浦雅 Miyabi Matsuura
       华夏果南 Kanan Nakahara
       小林飒 Kai Kobayashi
       绯田康人 Yasuhito Hida
       黑岛结菜 Yuina Kuroshima
       袴田吉彦 Yoshihiko Hakamada
       佐佐木希 Nozomi Sasaki
       矢吹春奈 Haruna Yabuki
       最所美咲 Misaki Saisho
◎标  签 可骇 | 日本 | 咒怨 | 惊悚 | 2015 | 灵异 | 悬疑 | 剧情
◎简  介


  原本对生活怀有极大热情的结衣(佐佐木希 饰),在遭受了佐伯俊雄一家后命运完全发生改变,她的身影消失在那栋阴森可怖的屋子里,而关于复仇的故事却仍未竣事。结衣的姐姐麻衣(平爱梨 饰)做了一个关于妹妹的不祥之梦,事后她想方想法联系结衣,但是始终没有覆信。俊雄在遭受了父亲刚雄(绯田康人 饰)屠杀母亲伽椰子的血腥悲剧后,她被亲戚接走,和姐姐玲央(小野乃乃香 饰)一家住在一路。今后日起头,玲央家怪事不竭,住在劈面医院的小女孩更目击到俊雄可怕的一面。
  
  伽椰子的怨念愈演愈烈,无差此外复仇涉及到了每一个和佐伯家扯上关系的陌生人……
  1. Video
  2. ID                                       : 1
  3. Format                                   : AVC
  4. Format/Info                              : Advanced Video Codec
  5. Format profile                           : [email protected]
  6. Format settings                          : CABAC / 4 Ref Frames
  7. Format settings, CABAC                   : Yes
  8. Format settings, Reference frames        : 4 frames
  9. Codec ID                                 : V_MPEG4/ISO/AVC
  10. Duration                                 : 1 h 30 min
  11. Bit rate                                 : 10 000 kb/s
  12. Width                                    : 1 920 pixels
  13. Height                                   : 1 036 pixels
  14. Display aspect ratio                     : 1.85:1
  15. Frame rate mode                          : Constant
  16. Frame rate                               : 23.976 (24000/1001/189150) FPS
  17. Color space                              : YUV
  18. Chroma subsampling                       : 4:2:0
  19. Bit depth                                : 8 bits
  20. Scan type                                : Progressive
  21. Bits/(Pixel*Frame)                       : 0.210
  22. Stream size                              : 6.33 GiB (87%)
  23. Writing library                          : x264 core 129 r2245+704+36 8e61944 tMod+MixAQ [[email protected]:2:0 X86_64]
  24. Encoding settings                        : cabac=1 / ref=4 / deblock=1:-3:-3 / analyse=0x3:0x133 / me=umh / subme=11 / psy=1 / fade_compensate=0.00 / psy_rd=1.05:0.10 / mixed_ref=1 / me_range=64 / chroma_me=1 / trellis=2 / 8x8dct=1 / cqm=0 / deadzone=21,11 / fast_pskip=0 / chroma_qp_offset=-3 / threads=18 / lookahead_threads=3 / sliced_threads=0 / nr=0 / decimate=0 / interlaced=0 / bluray_compat=0 / constrained_intra=0 / fgo=0 / bframes=10 / b_pyramid=2 / b_adapt=2 / b_bias=0 / direct=3 / weightb=1 / open_gop=0 / weightp=2 / keyint=250 / keyint_min=23 / scenecut=40 / intra_refresh=0 / rc=2pass / mbtree=0 / bitrate=10000 / ratetol=1.0 / qcomp=0.70 / qpmin=0 / qpmax=69 / qpstep=4 / cplxblur=20.0 / qblur=0.5 / ip_ratio=1.40 / pb_ratio=1.30 / aq=1 / aq-strength=0.90 / aq-sensitivity=10.00 / aq-ifactor=1.00 / aq-pfactor=1.00 / aq-bfactor=1.00 / aq2=0
  25. Language                                 : Japanese
  26. Default                                  : Yes
  27. Forced                                   : No
  28. Audio
  29. ID                                       : 2
  30. Format                                   : DTS
  31. Format/Info                              : Digital Theater Systems
  32. Codec ID                                 : A_DTS
  33. Duration                                 : 1 h 30 min
  34. Bit rate mode                            : Constant
  35. Bit rate                                 : 1 509 kb/s
  36. Channel(s)                               : 6 channels
  37. Channel layout                           : C L R Ls Rs LFE
  38. Sampling rate                            : 48.0 kHz
  39. Frame rate                               : 93.750 FPS (512 SPF)
  40. Bit depth                                : 16 bits
  41. Compression mode                         : Lossy
  42. Stream size                              : 978 MiB (13%)
  43. Language                                 : Japanese
  44. Default                                  : Yes
  45. Forced                                   : No
  46. Text
  47. ID                                       : 3
  48. Format                                   : UTF-8
  49. Codec ID                                 : S_TEXT/UTF8
  50. Codec ID/Info                            : UTF-8 Plain Text
  51. Duration                                 : 1 h 26 min
  52. Bit rate                                 : 17 b/s
  53. Count of elements                        : 538
  54. Stream size                              : 11.1 KiB (0%)
  55. Language                                 : English
  56. Default                                  : Yes
  57. Forced                                   : No
  58. Menu
  59. 00:00:00.000                             : en:00:00:00.000
  60. 00:03:25.747                             : en:00:03:25.747
  61. 00:03:44.474                             : en:00:03:44.474
  62. 00:12:53.397                             : en:00:12:53.397
  63. 00:21:52.978                             : en:00:21:52.978
  64. 00:28:50.854                             : en:00:28:50.854
  65. 00:36:28.769                             : en:00:36:28.769
  66. 00:44:42.805                             : en:00:44:42.805
  67. 01:05:07.945                             : en:01:05:07.945
  68. 01:20:01.505                             : en:01:20:01.505
  69. 01:27:02.091                             : en:01:27:02.091
  70. 01:30:36.514                             : en:01:30:36.514
复制代码





                                       
                                       

                                       
                                       
                                       




回复

使用道具 举报

懒得打字嘛,点击右侧快捷回复 【右侧内容,后台自定义】
您需要登录后才可以回帖 登录 | 立即加入

本版积分规则

Archiver|小黑屋| 蓝光电影网 |网站地图

Copyright © 2021 Comsenz Inc. Powered by 蓝光电影网

蓝光电影网

本站内容由用户自主分享和转载自互联网,转载目的在于传递更多信息,并不代表本网赞同其观点和对其真实性负责。

如有侵权、违反国家法律政策行为,请联系我们,我们会第一时间及时清除和处理!

举报反馈邮箱:[email protected]

快速回复 返回顶部 返回列表