找回密码

蓝光电影网

查看: 75|回复: 0

[动作] 领袖水准/回路追杀令 Boss.Level.2020.1080p.BluRay.REMUX.AVC.DTS-HD.MA.5.1-FGT 28.48GB

[复制链接]
蓝光币
511
发表于 2021-3-4 20:31:11 | 显示全部楼层 |阅读模式


◎译  名 魁首水准/回路追杀令(台)/循环:终级之战
◎片  名 Boss Level
◎年  代 2020
◎产  地 美国
◎类  别 行动 / 科幻 / 惊悚
◎语  言 英语
◎上映日期 2020-02-11(美国点映) / 2021-03-05(美国)
◎IMDb评分  6.8/10 from 4505 users
◎IMDb链接  https://www.imdb.com/title/tt7638348/
◎豆瓣评分 6.9/10 from 6882 users
◎豆瓣链接 https://movie.douban.com/subject/27200012/
◎片  长 100分钟
◎导  演 乔·卡纳汉 Joe Carnahan
◎编  剧 克里斯·博雷 Chris Borey / 埃迪·博雷 Eddie Borey / 乔·卡纳汉 Joe Carnahan
◎主  演 梅尔·吉布森 Mel Gibson
       安娜贝拉·沃丽丝 Annabelle Wallis
       杨紫琼 Michelle Yeoh
       弗兰克·格里罗 Frank Grillo
       娜奥米·沃茨 Naomi Watts
       郑肯 Ken Jeong
       威尔·萨索 Will Sasso
       赛琳娜·露 Selina Lo
       马蒂尔德·奥利维耶 Mathilde Ollivier
       泰勒·乔恩·奥尔森 Tyler Jon Olson
       斯温·特梅尔 Swen Temmel
       希·麦金尼 Sheaun McKinney
       埃里克·艾特巴里 Eric Etebari
       奎顿·杰克逊 Quinton 'Rampage' Jackson
       约翰·塞纳迭姆博 John Cenatiempo
       卡洛斯·阿维尔斯 Carlos Aviles
       罗布·格隆科夫斯基 Rob Gronkowski
       巴斯特·雷维斯 Buster Reeves
       迈克尔·图尔克 Michael Tourek
       艾伦·比尔纳 Aaron Beelner
       乔·奈泽维奇 Joe Knezevich
       詹姆斯·威廉·巴拉德 James William Ballard
       亚当·G·西蒙 Adam G. Simon
       Rashad Evans
       本杰明·韦弗 Benjamin Weaver
       罗伯特·廷斯利 Robert Tinsley
       梅多·威廉姆斯 Meadow Williams
◎标  签 科幻 | 行动 | 美国 | 笑剧 | 2020 | 美国电影 | 梅尔吉布森 | 电影
◎简  介


  梅尔·吉布森、弗兰克·格里罗商谈加盟行动惊悚片《魁首水准》(Boss Level),乔·卡纳汉(《人狼大战》《天龙特攻队》)执导并编写剧本。格里罗将饰演一位退役特种军队老兵,被困在永无尽头的灭亡循环当中。
  
  Emmett/Furla/Oasis投资,洛伦佐·迪·博纳文图拉(《变形金刚》《生死狙击》)、Mark Vahradian(《赤焰疆场》)、兰道尔·艾米特(《第一滴血》《缓兵之计》)、 George Furla(《双龙脱手》《孤独的幸存者》)结合制片。
  1. Video
  2. ID                                       : 1
  3. ID in the original source medium         : 4113 (0x1011)
  4. Format                                   : AVC
  5. Format/Info                              : Advanced Video Codec
  6. Format profile                           : [email protected]
  7. Format settings                          : CABAC / 3 Ref Frames
  8. Format settings, CABAC                   : Yes
  9. Format settings, Reference frames        : 3 frames
  10. Format settings, GOP                     : M=1, N=23
  11. Codec ID                                 : V_MPEG4/ISO/AVC
  12. Duration                                 : 1 h 40 min
  13. Bit rate mode                            : Variable
  14. Bit rate                                 : 33.0 Mb/s
  15. Maximum bit rate                         : 36.0 Mb/s
  16. Width                                    : 1 920 pixels
  17. Height                                   : 1 080 pixels
  18. Display aspect ratio                     : 16:9
  19. Frame rate mode                          : Constant
  20. Frame rate                               : 23.976 (24000/1001/189150) FPS
  21. Color space                              : YUV
  22. Chroma subsampling                       : 4:2:0
  23. Bit depth                                : 8 bits
  24. Scan type                                : Progressive
  25. Bits/(Pixel*Frame)                       : 0.664
  26. Stream size                              : 23.2 GiB (81%)
  27. Writing library                          : x264 core 146 r2538 121396c
  28. Encoding settings                        : cabac=1 / ref=4 / deblock=1:-1:-1 / analyse=0x3:0x133 / me=umh / subme=10 / psy=1 / psy_rd=1.00:0.15 / mixed_ref=1 / me_range=24 / chroma_me=1 / trellis=2 / 8x8dct=1 / cqm=0 / deadzone=21,11 / fast_pskip=1 / chroma_qp_offset=-3 / threads=48 / lookahead_threads=4 / sliced_threads=0 / slices=4 / nr=0 / decimate=1 / interlaced=0 / bluray_compat=1 / constrained_intra=0 / bframes=3 / b_pyramid=1 / b_adapt=2 / b_bias=0 / direct=3 / weightb=1 / open_gop=1 / weightp=1 / keyint=24 / keyint_min=1 / scenecut=40 / intra_refresh=0 / rc_lookahead=24 / rc=2pass / mbtree=1 / bitrate=33000 / ratetol=1.0 / qcomp=0.60 / qpmin=0 / qpmax=69 / qpstep=4 / cplxblur=20.0 / qblur=0.5 / vbv_maxrate=36000 / vbv_bufsize=30000 / nal_hrd=vbr / filler=0 / ip_ratio=1.40 / aq=1:1.00
  29. Language                                 : English
  30. Default                                  : No
  31. Forced                                   : No
  32. Color range                              : Limited
  33. Color primaries                          : BT.709
  34. Transfer characteristics                 : BT.709
  35. Matrix coefficients                      : BT.709
  36. Original source medium                   : Blu-ray
  37. Audio #1
  38. ID                                       : 2
  39. ID in the original source medium         : 4353 (0x1101)
  40. Format                                   : DTS XLL
  41. Format/Info                              : Digital Theater Systems
  42. Commercial name                          : DTS-HD Master Audio
  43. Codec ID                                 : A_DTS
  44. Duration                                 : 1 h 40 min
  45. Bit rate mode                            : Variable
  46. Bit rate                                 : 3 722 kb/s
  47. Channel(s)                               : 6 channels
  48. Channel layout                           : C L R Ls Rs LFE
  49. Sampling rate                            : 48.0 kHz
  50. Frame rate                               : 93.750 FPS (512 SPF)
  51. Bit depth                                : 24 bits
  52. Compression mode                         : Lossless
  53. Stream size                              : 2.63 GiB (9%)
  54. Title                                    : DTS-HD MA 5.1
  55. Language                                 : English
  56. Default                                  : Yes
  57. Forced                                   : No
  58. Original source medium                   : Blu-ray
  59. Audio #2
  60. ID                                       : 3
  61. ID in the original source medium         : 4352 (0x1100)
  62. Format                                   : DTS XLL
  63. Format/Info                              : Digital Theater Systems
  64. Commercial name                          : DTS-HD Master Audio
  65. Codec ID                                 : A_DTS
  66. Duration                                 : 1 h 40 min
  67. Bit rate mode                            : Variable
  68. Bit rate                                 : 3 751 kb/s
  69. Channel(s)                               : 6 channels
  70. Channel layout                           : C L R Ls Rs LFE
  71. Sampling rate                            : 48.0 kHz
  72. Frame rate                               : 93.750 FPS (512 SPF)
  73. Bit depth                                : 24 bits
  74. Compression mode                         : Lossless
  75. Stream size                              : 2.65 GiB (9%)
  76. Title                                    : DTS-HD MA 5.1
  77. Language                                 : French
  78. Default                                  : No
  79. Forced                                   : No
  80. Original source medium                   : Blu-ray
  81. Text #1
  82. ID                                       : 4
  83. Format                                   : UTF-8
  84. Codec ID                                 : S_TEXT/UTF8
  85. Codec ID/Info                            : UTF-8 Plain Text
  86. Duration                                 : 1 h 30 min
  87. Bit rate                                 : 72 b/s
  88. Count of elements                        : 1190
  89. Stream size                              : 47.8 KiB (0%)
  90. Title                                    : English-SRT
  91. Language                                 : English
  92. Default                                  : Yes
  93. Forced                                   : No
  94. Text #2
  95. ID                                       : 5
  96. ID in the original source medium         : 4608 (0x1200)
  97. Format                                   : PGS
  98. Muxing mode                              : zlib
  99. Codec ID                                 : S_HDMV/PGS
  100. Codec ID/Info                            : Picture based subtitle format used on BDs/HD-DVDs
  101. Duration                                 : 1 h 34 min
  102. Bit rate                                 : 682 b/s
  103. Count of elements                        : 92
  104. Stream size                              : 472 KiB (0%)
  105. Title                                    : French-PGS
  106. Language                                 : French
  107. Default                                  : No
  108. Forced                                   : No
  109. Original source medium                   : Blu-ray
  110. Text #3
  111. ID                                       : 6
  112. ID in the original source medium         : 4609 (0x1201)
  113. Format                                   : PGS
  114. Muxing mode                              : zlib
  115. Codec ID                                 : S_HDMV/PGS
  116. Codec ID/Info                            : Picture based subtitle format used on BDs/HD-DVDs
  117. Duration                                 : 1 h 40 min
  118. Bit rate                                 : 32.5 kb/s
  119. Count of elements                        : 2832
  120. Stream size                              : 23.3 MiB (0%)
  121. Title                                    : French-FORCED-PGS
  122. Language                                 : French
  123. Default                                  : No
  124. Forced                                   : No
  125. Original source medium                   : Blu-ray
  126. Menu
  127. 00:00:00.000                             : en:Chapter 01
  128. 00:08:12.700                             : en:Chapter 02
  129. 00:17:51.153                             : en:Chapter 03
  130. 00:26:55.614                             : en:Chapter 04
  131. 00:32:43.252                             : en:Chapter 05
  132. 00:40:18.249                             : en:Chapter 06
  133. 00:48:06.925                             : en:Chapter 07
  134. 00:56:50.615                             : en:Chapter 08
  135. 01:05:15.328                             : en:Chapter 09
  136. 01:13:17.059                             : en:Chapter 10
  137. 01:24:10.879                             : en:Chapter 11
  138. 01:32:56.070                             : en:Chapter 12
复制代码






                                       
                                       

                                       
                                       
                                       




回复

使用道具 举报

懒得打字嘛,点击右侧快捷回复 【右侧内容,后台自定义】
您需要登录后才可以回帖 登录 | 立即加入

本版积分规则

Archiver|小黑屋| 蓝光电影网 |网站地图

Copyright © 2021 Comsenz Inc. Powered by 蓝光电影网

蓝光电影网

本站内容由用户自主分享和转载自互联网,转载目的在于传递更多信息,并不代表本网赞同其观点和对其真实性负责。

如有侵权、违反国家法律政策行为,请联系我们,我们会第一时间及时清除和处理!

举报反馈邮箱:[email protected]

快速回复 返回顶部 返回列表