找回密码

蓝光电影网

查看: 20|回复: 0

[喜剧] 天使的烦恼 The.Trouble.With.Angels.1966.1080p.BluRay.REMUX.AVC.DTS-HD.MA.2.0-FGT 20.73GB

[复制链接]
蓝光币
519
发表于 2019-7-2 00:43:30 | 显示全部楼层 |阅读模式


◎译  名 天使的懊恼
◎片  名 The Trouble with Angels
◎年  代 1966
◎产  地 USA / 1966
◎类  别 笑剧 / 家庭
◎语  言 English
◎上映日期 1966-04-06
◎IMDb评分  7.4/10 from 3927 users
◎IMDb链接  http://www.imdb.com/title/tt0061122
◎豆瓣评分 0/10 from 0 users
◎豆瓣链接 https://movie.douban.com/subject/3004039/
◎片  长 112分钟
◎导  演 Ida Lupino
◎编  剧 Jane Trahey / Blanche Hanalis
◎主  演 Rosalind Russell
      Binnie Barnes
      Camilla Sparv

◎标  签 美国电影 | 笑剧 | 美国 | 罗莎琳德·拉塞尔 | 家庭 | 美國 | 宾妮·巴尼斯 | Ida_Lupino
◎简  介  
  暂无相关剧情先容
  1. Video
  2. ID                                       : 1
  3. Format                                   : AVC
  4. Format/Info                              : Advanced Video Codec
  5. Format profile                           : [email protected]
  6. Format settings                          : CABAC / 3 Ref Frames
  7. Format settings, CABAC                   : Yes
  8. Format settings, ReFrames                : 3 frames
  9. Codec ID                                 : V_MPEG4/ISO/AVC
  10. Duration                                 : 1 h 50 min
  11. Bit rate mode                            : Variable
  12. Bit rate                                 : 25.0 Mb/s
  13. Maximum bit rate                         : 40.0 Mb/s
  14. Width                                    : 1 920 pixels
  15. Height                                   : 1 080 pixels
  16. Display aspect ratio                     : 16:9
  17. Frame rate mode                          : Constant
  18. Frame rate                               : 23.976 (24000/1001) FPS
  19. Color space                              : YUV
  20. Chroma subsampling                       : 4:2:0
  21. Bit depth                                : 8 bits
  22. Scan type                                : Progressive
  23. Bits/(Pixel*Frame)                       : 0.503
  24. Stream size                              : 19.5 GiB (94%)
  25. Title                                    : The.Trouble.With.Angels.1966.1080p.BluRay.REMUX.AVC.DTS-HD.MA.2.0-FGT
  26. Writing library                          : x264 core 148 r2694bm 3b70645
  27. Encoding settings                        : cabac=1 / ref=4 / deblock=1:-2:-2 / analyse=0x3:0x133 / me=umh / subme=9 / psy=1 / psy_rd=1.00:0.25 / mixed_ref=1 / me_range=16 / chroma_me=1 / trellis=2 / 8x8dct=1 / cqm=0 / deadzone=6,6 / fast_pskip=1 / chroma_qp_offset=-4 / threads=12 / lookahead_threads=1 / sliced_threads=0 / slices=4 / nr=0 / decimate=0 / interlaced=0 / bluray_compat=1 / constrained_intra=0 / bframes=3 / b_pyramid=1 / b_adapt=2 / b_bias=0 / direct=3 / weightb=1 / open_gop=1 / weightp=1 / keyint=24 / keyint_min=1 / scenecut=40 / intra_refresh=0 / rc_lookahead=24 / rc=abr / mbtree=1 / bitrate=25000 / ratetol=1.0 / qcomp=0.80 / qpmin=0 / qpmax=69 / qpstep=4 / vbv_maxrate=40000 / vbv_bufsize=30000 / nal_hrd=vbr / filler=0 / ip_ratio=1.10 / aq=1:0.50
  28. Language                                 : English
  29. Default                                  : No
  30. Forced                                   : No
  31. Color range                              : Limited
  32. Color primaries                          : BT.709
  33. Transfer characteristics                 : BT.709
  34. Matrix coefficients                      : BT.709
  35. Audio
  36. ID                                       : 2
  37. Format                                   : DTS XLL
  38. Format/Info                              : Digital Theater Systems
  39. Commercial name                          : DTS-HD Master Audio
  40. Codec ID                                 : A_DTS
  41. Duration                                 : 1 h 50 min
  42. Bit rate mode                            : Variable
  43. Bit rate                                 : 1 559 kb/s
  44. Channel(s)                               : 2 channels
  45. Channel layout                           : L R
  46. Sampling rate                            : 48.0 kHz
  47. Frame rate                               : 93.750 FPS (512 SPF)
  48. Bit depth                                : 16 bits
  49. Compression mode                         : Lossless
  50. Stream size                              : 1.21 GiB (6%)
  51. Title                                    : The.Trouble.With.Angels.1966.1080p.BluRay.REMUX.AVC.DTS-HD.MA.2.0-FGT
  52. Language                                 : English
  53. Default                                  : Yes
  54. Forced                                   : No
  55. Text #1
  56. ID                                       : 3
  57. Format                                   : PGS
  58. Muxing mode                              : zlib
  59. Codec ID                                 : S_HDMV/PGS
  60. Codec ID/Info                            : Picture based subtitle format used on BDs/HD-DVDs
  61. Duration                                 : 1 h 47 min
  62. Bit rate                                 : 31.0 kb/s
  63. Count of elements                        : 2562
  64. Stream size                              : 23.7 MiB (0%)
  65. Title                                    : English-PGS
  66. Language                                 : English
  67. Default                                  : Yes
  68. Forced                                   : No
  69. Text #2
  70. ID                                       : 4
  71. Format                                   : PGS
  72. Muxing mode                              : zlib
  73. Codec ID                                 : S_HDMV/PGS
  74. Codec ID/Info                            : Picture based subtitle format used on BDs/HD-DVDs
  75. Duration                                 : 1 h 50 min
  76. Bit rate                                 : 33.2 kb/s
  77. Count of elements                        : 2854
  78. Stream size                              : 26.2 MiB (0%)
  79. Title                                    : English-SDH-PGS
  80. Language                                 : English
  81. Default                                  : No
  82. Forced                                   : No
  83. Menu
  84. 00:00:00.000                             : en:Chapter 01
  85. 00:10:01.183                             : en:Chapter 02
  86. 00:20:01.700                             : en:Chapter 03
  87. 00:30:01.841                             : en:Chapter 04
  88. 00:40:03.734                             : en:Chapter 05
  89. 00:50:02.708                             : en:Chapter 06
  90. 01:00:04.058                             : en:Chapter 07
  91. 01:10:04.658                             : en:Chapter 08
  92. 01:20:05.258                             : en:Chapter 09
  93. 01:30:05.900                             : en:Chapter 10
  94. 01:40:06.333                             : en:Chapter 11
复制代码






                                       
                                       

                                       
                                       
                                       




回复

使用道具 举报

懒得打字嘛,点击右侧快捷回复 【右侧内容,后台自定义】
您需要登录后才可以回帖 登录 | 立即加入

本版积分规则

Archiver|小黑屋| 蓝光电影网 |网站地图

Copyright © 2021 Comsenz Inc. Powered by 蓝光电影网

蓝光电影网

本站内容由用户自主分享和转载自互联网,转载目的在于传递更多信息,并不代表本网赞同其观点和对其真实性负责。

如有侵权、违反国家法律政策行为,请联系我们,我们会第一时间及时清除和处理!

举报反馈邮箱:[email protected]

快速回复 返回顶部 返回列表