找回密码

蓝光电影网

查看: 47|回复: 0

[动作] 兽王伏魔/万兽之王 The.Beastmaster.1982.VFX.1080p.BluRay.REMUX.AVC.DTS-HD.MA.5.1-FGT 32.60GB

[复制链接]
蓝光币
509
发表于 2021-2-28 11:27:51 | 显示全部楼层 |阅读模式


◎译  名 兽王伏魔/万兽之王/魔诫奇兵
◎片  名 The Beastmaster
◎年  代 1982
◎产  地 美国,西德
◎类  别 行动 / 奇异 / 冒险
◎语  言 英语
◎上映日期 1982-08-20
◎IMDb评分  6.2/10 from 21007 users
◎IMDb链接  https://www.imdb.com/title/tt0083630/
◎豆瓣评分 7.1/10 from 131 users
◎豆瓣链接 https://movie.douban.com/subject/1298314/
◎片  长 118 分钟
◎导  演 唐·柯斯卡莱利 Don Coscarelli
◎编  剧 保罗·佩珀曼 Paul Pepperman / 唐·柯斯卡莱利 Don Coscarelli / 安德丽·诺顿 Andre Norton
◎主  演 马克·辛格 Marc Singer
       坦娅·罗伯茨 Tanya Roberts
       雷普·汤恩 Rip Torn
       约翰·阿莫斯 John Amos
       Joshua Milrad
       罗德·卢米斯 Rod Loomis
       本·哈默 Ben Hammer
       Ralph Strait
       比利·詹 Billy Jayne
       Janet DeMay
       珍妮特·琼斯 Janet Jones
       万娜·邦塔 Vanna Bonta
       Monty L. Simons
       Jeremy Whelan
       Bruce Paul Barbour
       埃迪·多诺 Eddy Donno
       弗雷迪·海斯 Freddie Hice
       保罗·雷诺兹 Paul Reynolds
       Larry Randles
       Diamond Farnsworth
       比利·汉克·胡克 Billy Hank Hooker
       Chuck Hicks
       Tommy J. Huff
◎标  签 电影 | 奇异 | 美国电影 | 魔幻 | 冒险 | 美国 | 行动 | 1982
◎简  介


  上古洪荒时代,传播著奇异的冒险故事。“万兽王”达尔即是这个时代的豪杰。
  
  达尔诞生皇室,却被巫师亚刚追杀,漂泊官方。他成人未几,养父就被野生番杀死,但他也发现了他能与动物交换的才能。
  
  同时,他必须阻止巫师亚刚拿到“布朗斯之眼”。由于一 旦亚刚拿到此颗宝石,邪魔恶神布朗斯将重返人世,助亚刚王为恶,苛虐生灵。为了获得布朗斯的魔力,亚刚绑架了达尔的亲兄弟——泰尔王,兄弟情深的达尔誓词救回兄弟,为父报仇,他率领著忠心的动物军队以及智囊塞斯向亚刚王宣战。达尔将和这位奥秘没测的魔头刀锋相对决一死战。
  1. Video
  2. ID                                       : 1
  3. ID in the original source medium         : 4113 (0x1011)
  4. Format                                   : AVC
  5. Format/Info                              : Advanced Video Codec
  6. Format profile                           : [email protected]
  7. Format settings                          : CABAC / 3 Ref Frames
  8. Format settings, CABAC                   : Yes
  9. Format settings, Reference frames        : 3 frames
  10. Codec ID                                 : V_MPEG4/ISO/AVC
  11. Duration                                 : 1 h 58 min
  12. Bit rate mode                            : Variable
  13. Bit rate                                 : 33.0 Mb/s
  14. Maximum bit rate                         : 40.0 Mb/s
  15. Width                                    : 1 920 pixels
  16. Height                                   : 1 080 pixels
  17. Display aspect ratio                     : 16:9
  18. Frame rate mode                          : Constant
  19. Frame rate                               : 23.976 (24000/1001/189150) FPS
  20. Standard                                 : NTSC
  21. Color space                              : YUV
  22. Chroma subsampling                       : 4:2:0
  23. Bit depth                                : 8 bits
  24. Scan type                                : Progressive
  25. Bits/(Pixel*Frame)                       : 0.664
  26. Stream size                              : 27.2 GiB (84%)
  27. Writing library                          : x264pro - Adobe CS Exporter Plug-in
  28. Encoding settings                        : cabac=1 / ref=4 / deblock=1:-1:-1 / analyse=0x3:0x133 / me=umh / subme=10 / psy=1 / psy_rd=1.00:0.15 / mixed_ref=1 / me_range=24 / chroma_me=1 / trellis=2 / 8x8dct=1 / cqm=0 / deadzone=21,11 / fast_pskip=1 / chroma_qp_offset=-3 / threads=12 / lookahead_threads=2 / sliced_threads=0 / slices=4 / nr=0 / decimate=1 / interlaced=0 / bluray_compat=1 / constrained_intra=0 / bframes=3 / b_pyramid=1 / b_adapt=2 / b_bias=0 / direct=3 / weightb=1 / open_gop=0 / weightp=1 / keyint=24 / keyint_min=1 / scenecut=40 / intra_refresh=0 / rc_lookahead=24 / rc=2pass / mbtree=1 / bitrate=33000 / ratetol=1.0 / qcomp=0.60 / qpmin=0 / qpmax=69 / qpstep=4 / cplxblur=20.0 / qblur=0.5 / vbv_maxrate=40000 / vbv_bufsize=30000 / nal_hrd=vbr / ip_ratio=1.40 / aq=1:1.00
  29. Language                                 : English
  30. Default                                  : No
  31. Forced                                   : No
  32. Color range                              : Limited
  33. Color primaries                          : BT.709
  34. Transfer characteristics                 : BT.709
  35. Matrix coefficients                      : BT.709
  36. Original source medium                   : Blu-ray
  37. Audio #1
  38. ID                                       : 2
  39. ID in the original source medium         : 4353 (0x1101)
  40. Format                                   : DTS XLL
  41. Format/Info                              : Digital Theater Systems
  42. Commercial name                          : DTS-HD Master Audio
  43. Codec ID                                 : A_DTS
  44. Duration                                 : 1 h 58 min
  45. Bit rate mode                            : Variable
  46. Bit rate                                 : 3 516 kb/s
  47. Channel(s)                               : 6 channels
  48. Channel layout                           : C L R Ls Rs LFE
  49. Sampling rate                            : 48.0 kHz
  50. Frame rate                               : 93.750 FPS (512 SPF)
  51. Bit depth                                : 24 bits
  52. Compression mode                         : Lossless
  53. Stream size                              : 2.91 GiB (9%)
  54. Title                                    : DTS-HD MA 5.1
  55. Language                                 : English
  56. Default                                  : Yes
  57. Forced                                   : No
  58. Original source medium                   : Blu-ray
  59. Audio #2
  60. ID                                       : 3
  61. ID in the original source medium         : 4352 (0x1100)
  62. Format                                   : DTS XLL
  63. Format/Info                              : Digital Theater Systems
  64. Commercial name                          : DTS-HD Master Audio
  65. Codec ID                                 : A_DTS
  66. Duration                                 : 1 h 58 min
  67. Bit rate mode                            : Variable
  68. Bit rate                                 : 2 126 kb/s
  69. Channel(s)                               : 2 channels
  70. Channel layout                           : L R
  71. Sampling rate                            : 48.0 kHz
  72. Frame rate                               : 93.750 FPS (512 SPF)
  73. Bit depth                                : 24 bits
  74. Compression mode                         : Lossless
  75. Stream size                              : 1.76 GiB (5%)
  76. Title                                    : DTS-HD MA 2.0
  77. Language                                 : English
  78. Default                                  : No
  79. Forced                                   : No
  80. Original source medium                   : Blu-ray
  81. Audio #3
  82. ID                                       : 4
  83. ID in the original source medium         : 4353 (0x1101)
  84. Format                                   : AC-3
  85. Format/Info                              : Audio Coding 3
  86. Commercial name                          : Dolby Digital
  87. Codec ID                                 : A_AC3
  88. Duration                                 : 1 h 58 min
  89. Bit rate mode                            : Constant
  90. Bit rate                                 : 448 kb/s
  91. Channel(s)                               : 6 channels
  92. Channel layout                           : L R C LFE Ls Rs
  93. Sampling rate                            : 48.0 kHz
  94. Frame rate                               : 31.250 FPS (1536 SPF)
  95. Compression mode                         : Lossy
  96. Stream size                              : 380 MiB (1%)
  97. Title                                    : DD 5.1
  98. Language                                 : English
  99. Service kind                             : Complete Main
  100. Default                                  : No
  101. Forced                                   : No
  102. Original source medium                   : Blu-ray
  103. Audio #4
  104. ID                                       : 5
  105. ID in the original source medium         : 4354 (0x1102)
  106. Format                                   : AC-3
  107. Format/Info                              : Audio Coding 3
  108. Commercial name                          : Dolby Digital
  109. Codec ID                                 : A_AC3
  110. Duration                                 : 1 h 58 min
  111. Bit rate mode                            : Constant
  112. Bit rate                                 : 192 kb/s
  113. Channel(s)                               : 1 channel
  114. Channel layout                           : C
  115. Sampling rate                            : 48.0 kHz
  116. Frame rate                               : 31.250 FPS (1536 SPF)
  117. Compression mode                         : Lossy
  118. Stream size                              : 163 MiB (0%)
  119. Title                                    : DD 1.0
  120. Language                                 : English
  121. Service kind                             : Complete Main
  122. Default                                  : No
  123. Forced                                   : No
  124. Original source medium                   : Blu-ray
  125. Audio #5
  126. ID                                       : 6
  127. ID in the original source medium         : 4355 (0x1103)
  128. Format                                   : AC-3
  129. Format/Info                              : Audio Coding 3
  130. Commercial name                          : Dolby Digital
  131. Codec ID                                 : A_AC3
  132. Duration                                 : 1 h 58 min
  133. Bit rate mode                            : Constant
  134. Bit rate                                 : 192 kb/s
  135. Channel(s)                               : 1 channel
  136. Channel layout                           : C
  137. Sampling rate                            : 48.0 kHz
  138. Frame rate                               : 31.250 FPS (1536 SPF)
  139. Compression mode                         : Lossy
  140. Stream size                              : 163 MiB (0%)
  141. Title                                    : DD 1.0
  142. Language                                 : English
  143. Service kind                             : Complete Main
  144. Default                                  : No
  145. Forced                                   : No
  146. Original source medium                   : Blu-ray
  147. Text #1
  148. ID                                       : 7
  149. Format                                   : UTF-8
  150. Codec ID                                 : S_TEXT/UTF8
  151. Codec ID/Info                            : UTF-8 Plain Text
  152. Duration                                 : 1 h 50 min
  153. Bit rate                                 : 10 b/s
  154. Count of elements                        : 435
  155. Stream size                              : 8.14 KiB (0%)
  156. Title                                    : English-SRT
  157. Language                                 : English
  158. Default                                  : Yes
  159. Forced                                   : No
  160. Text #2
  161. ID                                       : 8
  162. ID in the original source medium         : 4608 (0x1200)
  163. Format                                   : PGS
  164. Muxing mode                              : zlib
  165. Codec ID                                 : S_HDMV/PGS
  166. Codec ID/Info                            : Picture based subtitle format used on BDs/HD-DVDs
  167. Duration                                 : 1 h 55 min
  168. Bit rate                                 : 11.0 kb/s
  169. Count of elements                        : 2057
  170. Stream size                              : 9.10 MiB (0%)
  171. Language                                 : English
  172. Default                                  : No
  173. Forced                                   : No
  174. Original source medium                   : Blu-ray
  175. Menu
  176. 00:00:00.000                             : en:Chapter 01
  177. 00:22:02.779                             : en:Chapter 02
  178. 00:43:12.923                             : en:Chapter 03
  179. 01:03:40.650                             : en:Chapter 04
  180. 01:22:03.919                             : en:Chapter 05
  181. 01:41:55.400                             : en:Chapter 06
复制代码





                                       
                                       

                                       
                                       
                                       




回复

使用道具 举报

懒得打字嘛,点击右侧快捷回复 【右侧内容,后台自定义】
您需要登录后才可以回帖 登录 | 立即加入

本版积分规则

Archiver|小黑屋| 蓝光电影网 |网站地图

Copyright © 2021 Comsenz Inc. Powered by 蓝光电影网

蓝光电影网

本站内容由用户自主分享和转载自互联网,转载目的在于传递更多信息,并不代表本网赞同其观点和对其真实性负责。

如有侵权、违反国家法律政策行为,请联系我们,我们会第一时间及时清除和处理!

举报反馈邮箱:[email protected]

快速回复 返回顶部 返回列表