找回密码

蓝光电影网

查看: 140|回复: 0

[动作] 要敌 Archenemy.2020.1080p.BluRay.REMUX.AVC.DTS-HD.MA.5.1-FGT 15.54GB

[复制链接]
蓝光币
730
发表于 2021-2-21 23:24:17 | 显示全部楼层 |阅读模式


◎译  名 要敌
◎片  名 Archenemy
◎年  代 2020
◎产  地 美国
◎类  别 行动 / 冒险
◎上映日期 2020-12-11(美国)
◎IMDb评分  5/10 from 1353 users
◎IMDb链接  https://www.imdb.com/title/tt11274100/
◎豆瓣评分 4.5/10 from 75 users
◎豆瓣链接 https://movie.douban.com/subject/34881803/
◎导  演 亚当·埃及·摩提莫 Adam Egypt Mortimer
◎编  剧 亚当·埃及·摩提莫 Adam Egypt Mortimer
◎主  演 乔·曼根尼罗 Joe Manganiello
       格伦·豪尔顿 Glenn Howerton
       约瑟夫·D·雷特曼 Joseph D. Reitman
       麦克·勃兰特 Mac Brandt
       基兰·加拉赫 Kieran Gallagher
       克里斯托弗·盖顿 Christopher Guyton
◎标  签 行动 | 美国 | 2020 | 电影 | 乔·曼根尼罗 | 美国电影 | 剧情 | 冒险
◎简  介


  乔·曼根尼罗将主演行动冒险影片[要敌](Archenemy,暂译),Adam Egypt Mortimer([丹尼尔不是真的])自编自导。影片故事报告麦克斯·费斯特(Max Fist)自称自己是来自另一个维度的超级豪杰,他穿越时空跌落到了地球上,在地球上的他没法发挥超才能。没人相信他的故事,只要一个叫“仓鼠”的少年相信他的话。他们一路走上陌头,消灭当地的毒品团体及名为“司理”的犯罪头子。
  1. Video
  2. ID                                       : 1
  3. ID in the original source medium         : 4113 (0x1011)
  4. Format                                   : AVC
  5. Format/Info                              : Advanced Video Codec
  6. Format profile                           : [email protected]
  7. Format settings                          : CABAC / 4 Ref Frames
  8. Format settings, CABAC                   : Yes
  9. Format settings, Reference frames        : 4 frames
  10. Codec ID                                 : V_MPEG4/ISO/AVC
  11. Duration                                 : 1 h 30 min
  12. Bit rate mode                            : Variable
  13. Bit rate                                 : 20.8 Mb/s
  14. Maximum bit rate                         : 36.0 Mb/s
  15. Width                                    : 1 920 pixels
  16. Height                                   : 1 080 pixels
  17. Display aspect ratio                     : 16:9
  18. Frame rate mode                          : Constant
  19. Frame rate                               : 23.976 (24000/1001/189150) FPS
  20. Color space                              : YUV
  21. Chroma subsampling                       : 4:2:0
  22. Bit depth                                : 8 bits
  23. Scan type                                : Progressive
  24. Bits/(Pixel*Frame)                       : 0.419
  25. Stream size                              : 13.1 GiB (85%)
  26. Language                                 : English
  27. Default                                  : No
  28. Forced                                   : No
  29. Original source medium                   : Blu-ray
  30. Audio
  31. ID                                       : 2
  32. ID in the original source medium         : 4352 (0x1100)
  33. Format                                   : DTS XLL
  34. Format/Info                              : Digital Theater Systems
  35. Commercial name                          : DTS-HD Master Audio
  36. Codec ID                                 : A_DTS
  37. Duration                                 : 1 h 30 min
  38. Bit rate mode                            : Variable
  39. Bit rate                                 : 3 787 kb/s
  40. Channel(s)                               : 6 channels
  41. Channel layout                           : C L R Ls Rs LFE
  42. Sampling rate                            : 48.0 kHz
  43. Frame rate                               : 93.750 FPS (512 SPF)
  44. Bit depth                                : 24 bits
  45. Compression mode                         : Lossless
  46. Stream size                              : 2.39 GiB (15%)
  47. Title                                    : DTS-HD MA 5.1
  48. Language                                 : English
  49. Default                                  : Yes
  50. Forced                                   : No
  51. Original source medium                   : Blu-ray
  52. Text #1
  53. ID                                       : 3
  54. Format                                   : UTF-8
  55. Codec ID                                 : S_TEXT/UTF8
  56. Codec ID/Info                            : UTF-8 Plain Text
  57. Duration                                 : 1 h 22 min
  58. Bit rate                                 : 50 b/s
  59. Count of elements                        : 1014
  60. Stream size                              : 30.4 KiB (0%)
  61. Title                                    : English-SRT
  62. Language                                 : English
  63. Default                                  : Yes
  64. Forced                                   : No
  65. Text #2
  66. ID                                       : 4
  67. ID in the original source medium         : 4608 (0x1200)
  68. Format                                   : PGS
  69. Muxing mode                              : zlib
  70. Codec ID                                 : S_HDMV/PGS
  71. Codec ID/Info                            : Picture based subtitle format used on BDs/HD-DVDs
  72. Duration                                 : 1 h 22 min
  73. Bit rate                                 : 23.2 kb/s
  74. Count of elements                        : 2276
  75. Stream size                              : 13.7 MiB (0%)
  76. Title                                    : English-PGS
  77. Language                                 : English
  78. Default                                  : No
  79. Forced                                   : No
  80. Original source medium                   : Blu-ray
  81. Text #3
  82. ID                                       : 5
  83. ID in the original source medium         : 4609 (0x1201)
  84. Format                                   : PGS
  85. Muxing mode                              : zlib
  86. Codec ID                                 : S_HDMV/PGS
  87. Codec ID/Info                            : Picture based subtitle format used on BDs/HD-DVDs
  88. Duration                                 : 1 h 22 min
  89. Bit rate                                 : 20.8 kb/s
  90. Count of elements                        : 2092
  91. Stream size                              : 12.2 MiB (0%)
  92. Title                                    : Spanish-PGS
  93. Language                                 : Spanish
  94. Default                                  : No
  95. Forced                                   : No
  96. Original source medium                   : Blu-ray
  97. Text #4
  98. ID                                       : 6
  99. ID in the original source medium         : 4610 (0x1202)
  100. Format                                   : PGS
  101. Muxing mode                              : zlib
  102. Codec ID                                 : S_HDMV/PGS
  103. Codec ID/Info                            : Picture based subtitle format used on BDs/HD-DVDs
  104. Duration                                 : 1 h 22 min
  105. Bit rate                                 : 21.0 kb/s
  106. Count of elements                        : 2052
  107. Stream size                              : 12.3 MiB (0%)
  108. Title                                    : French-PGS
  109. Language                                 : French
  110. Default                                  : No
  111. Forced                                   : No
  112. Original source medium                   : Blu-ray
  113. Menu
  114. 00:00:00.000                             : en:Chapter 01
  115. 00:05:50.099                             : en:Chapter 02
  116. 00:18:24.144                             : en:Chapter 03
  117. 00:33:48.401                             : en:Chapter 04
  118. 00:50:08.922                             : en:Chapter 05
  119. 01:04:28.990                             : en:Chapter 06
  120. 01:10:16.962                             : en:Chapter 07
  121. 01:23:27.669                             : en:Chapter 08
复制代码






                                       
                                       

                                       
                                       
                                       




回复

使用道具 举报

懒得打字嘛,点击右侧快捷回复 【右侧内容,后台自定义】
您需要登录后才可以回帖 登录 | 立即加入

本版积分规则

Archiver|小黑屋| 蓝光电影网 |网站地图

Copyright © 2021 Comsenz Inc. Powered by 蓝光电影网

蓝光电影网

本站内容由用户自主分享和转载自互联网,转载目的在于传递更多信息,并不代表本网赞同其观点和对其真实性负责。

如有侵权、违反国家法律政策行为,请联系我们,我们会第一时间及时清除和处理!

举报反馈邮箱:[email protected]

快速回复 返回顶部 返回列表