找回密码

蓝光电影网

查看: 22|回复: 0

[喜剧] 食人族和地毯工 Cannibals.And.Carpet.Fitters.2017.1080p.BluRay.REMUX.AVC.DTS-HR.5.1-FGT 14.21GB

[复制链接]
蓝光币
515
发表于 2019-6-30 22:56:07 | 显示全部楼层 |阅读模式


◎译  名 食人族和地毯工
◎片  名 Cannibals and Carpet Fitters
◎年  代 2017
◎产  地 英国
◎类  别 笑剧 / 可骇
◎语  言 英语
◎IMDb评分  5.3/10 from 281 users
◎IMDb链接  http://www.imdb.com/title/tt4249580
◎豆瓣评分 0/10 from 0 users
◎豆瓣链接 https://movie.douban.com/subject/27019891/
◎导  演 James Bushe
◎编  剧 Richard Lee O'Donnell
◎主  演 Darren Sean Enright
      Richard Lee O'Donnell
      Zara Phythian
      Christopher Whitlow
      Dominic Holmes
      Jessica-Jane Stafford
      Alex Zane
      Phill Martin
      Mingus Johnston
      Lee Charles

◎标  签 英国 | 美国 | 烂片 | 丧尸
◎简  介  
  A group of carpet fitters are sent on a job to an old Country house in the middle of nowhere. However they soon discover it's a trap set up by the savage, cannibalistic family, The Hannings. The carpet fitters are forced to fight for their lives or risk ending up being the evenings dinner. Unfortunately they are not quite your typical heroes!
  1. Video
  2. ID                                       : 1
  3. Format                                   : AVC
  4. Format/Info                              : Advanced Video Codec
  5. Format profile                           : [email protected]
  6. Format settings                          : CABAC / 4 Ref Frames
  7. Format settings, CABAC                   : Yes
  8. Format settings, ReFrames                : 4 frames
  9. Format settings, GOP                     : M=4, N=12
  10. Codec ID                                 : V_MPEG4/ISO/AVC
  11. Duration                                 : 1 h 22 min
  12. Bit rate mode                            : Variable
  13. Bit rate                                 : 22.6 Mb/s
  14. Maximum bit rate                         : 30.0 Mb/s
  15. Width                                    : 1 920 pixels
  16. Height                                   : 1 080 pixels
  17. Display aspect ratio                     : 16:9
  18. Frame rate mode                          : Constant
  19. Frame rate                               : 24.000 FPS
  20. Standard                                 : NTSC
  21. Color space                              : YUV
  22. Chroma subsampling                       : 4:2:0
  23. Bit depth                                : 8 bits
  24. Scan type                                : Progressive
  25. Bits/(Pixel*Frame)                       : 0.454
  26. Stream size                              : 13.0 GiB (92%)
  27. Title                                    : Cannibals.And.Carpet.Fitters.2017.1080p.BluRay.REMUX.AVC.DTS-HR.5.1-FGT
  28. Language                                 : English
  29. Default                                  : No
  30. Forced                                   : No
  31. Color range                              : Limited
  32. Color primaries                          : BT.709
  33. Transfer characteristics                 : BT.709
  34. Matrix coefficients                      : BT.709
  35. Audio
  36. ID                                       : 2
  37. Format                                   : DTS XBR
  38. Format/Info                              : Digital Theater Systems
  39. Commercial name                          : DTS-HD High Resolution Audio
  40. Codec ID                                 : A_DTS
  41. Duration                                 : 1 h 22 min
  42. Bit rate mode                            : Constant
  43. Bit rate                                 : 2 046 kb/s
  44. Channel(s)                               : 6 channels
  45. Channel layout                           : C L R Ls Rs LFE
  46. Sampling rate                            : 48.0 kHz
  47. Frame rate                               : 93.750 FPS (512 SPF)
  48. Bit depth                                : 16 bits
  49. Compression mode                         : Lossy
  50. Stream size                              : 1.18 GiB (8%)
  51. Title                                    : Cannibals.And.Carpet.Fitters.2017.1080p.BluRay.REMUX.AVC.DTS-HR.5.1-FGT
  52. Language                                 : English
  53. Default                                  : Yes
  54. Forced                                   : No
  55. Menu
  56. 00:00:00.000                             : en:Chapter 01
  57. 00:08:01.541                             : en:Chapter 02
  58. 00:14:33.541                             : en:Chapter 03
  59. 00:21:55.416                             : en:Chapter 04
  60. 00:27:42.750                             : en:Chapter 05
  61. 00:34:34.833                             : en:Chapter 06
  62. 00:40:47.416                             : en:Chapter 07
  63. 00:48:25.541                             : en:Chapter 08
  64. 00:55:28.625                             : en:Chapter 09
  65. 01:04:04.750                             : en:Chapter 10
  66. 01:14:31.916                             : en:Chapter 11
  67. 01:19:52.791                             : en:Chapter 12
复制代码






                                       
                                       

                                       
                                       
                                       




回复

使用道具 举报

懒得打字嘛,点击右侧快捷回复 【右侧内容,后台自定义】
您需要登录后才可以回帖 登录 | 立即加入

本版积分规则

Archiver|小黑屋| 蓝光电影网 |网站地图

Copyright © 2021 Comsenz Inc. Powered by 蓝光电影网

蓝光电影网

本站内容由用户自主分享和转载自互联网,转载目的在于传递更多信息,并不代表本网赞同其观点和对其真实性负责。

如有侵权、违反国家法律政策行为,请联系我们,我们会第一时间及时清除和处理!

举报反馈邮箱:[email protected]

快速回复 返回顶部 返回列表