找回密码

蓝光电影网

查看: 14|回复: 0

[剧情] 走过冬季 Winter.Passing.2005.1080p.BluRay.REMUX.AVC.DD5.1-FGT 18.76GB

[复制链接]
蓝光币
519
发表于 2019-7-20 23:41:01 | 显示全部楼层 |阅读模式


◎译  名 走过冬季
◎片  名 Winter Passing
◎年  代 2005
◎产  地 美国
◎类  别 剧情 / 笑剧
◎语  言 英语
◎上映日期 2005-09-10(多伦多电影节)
◎IMDb评分  6.4/10 from 7873 users
◎IMDb链接  http://www.imdb.com/title/tt0380817
◎豆瓣评分 7.6/10 from 1500 users
◎豆瓣链接 https://movie.douban.com/subject/1758389/
◎片  长 98分钟
◎导  演 Adam Rapp
◎编  剧 Adam Rapp
◎主  演 佐伊·丹斯切尔 Zooey Deschanel
      Darrell Larson
      约翰·贝德福德·劳埃德 John Bedford Lloyd
      迪尔德丽·奥康奈尔 Deirdre O'Connell

◎标  签 ZooeyDeschanel | 美国 | 文艺 | 自力电影 | 美国电影 | 剧情 | 亲情 | 2005
◎简  介  
  美丽女孩瑞茜·霍尔登(佐伊·丹斯切尔 Zooey Deschanel 饰)心中怀有表演的胡想,为此她从密歇根州的故乡来到大城市纽约,靠着自己的勤恳获得了些许成就。她的父亲丹(埃德·哈里斯 Ed Harries 饰)曾是一位著名作家,却因爱妻之死而快要二十年再未执笔。瑞茜 和父亲的关系很是冷淡,父女二人别离多年几无联系。某晚,表演终了的瑞茜迎来一位不速之客,她叫劳瑞·兰斯基(艾米·麦迪甘 Amy Madigen 饰),是一个以编书为生的女人。劳瑞对丹昔时写给爱妻的情书极为感爱好,她希望瑞茜可以供给这些情书。
虽然实现了演员的胡想,可是瑞茜仍为生存所迫。在丰富报答的引诱下,她决议返回阔别七年之久的故乡,却不曾想到这是一次改变人生的旅程……
  1. Video
  2. ID                                       : 1
  3. Format                                   : AVC
  4. Format/Info                              : Advanced Video Codec
  5. Format profile                           : [email protected]
  6. Format settings                          : CABAC / 3 Ref Frames
  7. Format settings, CABAC                   : Yes
  8. Format settings, ReFrames                : 3 frames
  9. Codec ID                                 : V_MPEG4/ISO/AVC
  10. Duration                                 : 1 h 39 min
  11. Bit rate mode                            : Variable
  12. Bit rate                                 : 25.0 Mb/s
  13. Maximum bit rate                         : 40.0 Mb/s
  14. Width                                    : 1 920 pixels
  15. Height                                   : 1 080 pixels
  16. Display aspect ratio                     : 16:9
  17. Frame rate mode                          : Constant
  18. Frame rate                               : 23.976 (24000/1001) FPS
  19. Color space                              : YUV
  20. Chroma subsampling                       : 4:2:0
  21. Bit depth                                : 8 bits
  22. Scan type                                : Progressive
  23. Bits/(Pixel*Frame)                       : 0.503
  24. Stream size                              : 17.4 GiB (93%)
  25. Title                                    : Winter.Passing.2005.1080p.BluRay.REMUX.AVC.DD5.1-FGT
  26. Writing library                          : x264 core 148 r2744 b97ae06
  27. Encoding settings                        : cabac=1 / ref=4 / deblock=1:-1:-1 / analyse=0x3:0x113 / me=hex / subme=7 / psy=1 / psy_rd=1.00:0.15 / mixed_ref=1 / me_range=16 / chroma_me=1 / trellis=1 / 8x8dct=1 / cqm=0 / deadzone=21,11 / fast_pskip=1 / chroma_qp_offset=-3 / threads=12 / lookahead_threads=2 / sliced_threads=0 / slices=4 / nr=0 / decimate=1 / interlaced=0 / bluray_compat=1 / constrained_intra=0 / bframes=3 / b_pyramid=1 / b_adapt=2 / b_bias=0 / direct=1 / weightb=1 / open_gop=1 / weightp=1 / keyint=23 / keyint_min=1 / scenecut=40 / intra_refresh=0 / rc_lookahead=23 / rc=2pass / mbtree=1 / bitrate=25000 / ratetol=1.0 / qcomp=0.60 / qpmin=0 / qpmax=69 / qpstep=4 / cplxblur=20.0 / qblur=0.5 / vbv_maxrate=40000 / vbv_bufsize=30000 / nal_hrd=vbr / filler=0 / ip_ratio=1.40 / aq=1:1.00
  28. Language                                 : English
  29. Default                                  : No
  30. Forced                                   : No
  31. Color range                              : Limited
  32. Color primaries                          : BT.709
  33. Transfer characteristics                 : BT.709
  34. Matrix coefficients                      : BT.709
  35. Audio #1
  36. ID                                       : 2
  37. Format                                   : AC-3
  38. Format/Info                              : Audio Coding 3
  39. Commercial name                          : Dolby Digital
  40. Codec ID                                 : A_AC3
  41. Duration                                 : 1 h 39 min
  42. Bit rate mode                            : Constant
  43. Bit rate                                 : 448 kb/s
  44. Channel(s)                               : 6 channels
  45. Channel layout                           : L R C LFE Ls Rs
  46. Sampling rate                            : 48.0 kHz
  47. Frame rate                               : 31.250 FPS (1536 SPF)
  48. Bit depth                                : 16 bits
  49. Compression mode                         : Lossy
  50. Stream size                              : 319 MiB (2%)
  51. Title                                    : Winter.Passing.2005.1080p.BluRay.REMUX.AVC.DD5.1-FGT
  52. Language                                 : English
  53. Service kind                             : Complete Main
  54. Default                                  : Yes
  55. Forced                                   : No
  56. Audio #2
  57. ID                                       : 3
  58. Format                                   : PCM
  59. Format settings                          : Little / Signed
  60. Codec ID                                 : A_PCM/INT/LIT
  61. Duration                                 : 1 h 39 min
  62. Bit rate mode                            : Constant
  63. Bit rate                                 : 1 536 kb/s
  64. Channel(s)                               : 2 channels
  65. Sampling rate                            : 48.0 kHz
  66. Frame rate                               : 30.000 FPS (1600 SPF)
  67. Bit depth                                : 16 bits
  68. Stream size                              : 1.07 GiB (6%)
  69. Title                                    : Winter.Passing.2005.1080p.BluRay.REMUX.AVC.DD5.1-FGT
  70. Language                                 : English
  71. Default                                  : No
  72. Forced                                   : No
  73. Text #1
  74. ID                                       : 4
  75. Format                                   : PGS
  76. Muxing mode                              : zlib
  77. Codec ID                                 : S_HDMV/PGS
  78. Codec ID/Info                            : Picture based subtitle format used on BDs/HD-DVDs
  79. Duration                                 : 1 h 39 min
  80. Bit rate                                 : 24.0 kb/s
  81. Count of elements                        : 2169
  82. Stream size                              : 17.0 MiB (0%)
  83. Title                                    : English-PGS
  84. Language                                 : English
  85. Default                                  : Yes
  86. Forced                                   : No
  87. Text #2
  88. ID                                       : 5
  89. Format                                   : PGS
  90. Muxing mode                              : zlib
  91. Codec ID                                 : S_HDMV/PGS
  92. Codec ID/Info                            : Picture based subtitle format used on BDs/HD-DVDs
  93. Duration                                 : 1 h 33 min
  94. Bit rate                                 : 16.4 kb/s
  95. Count of elements                        : 1717
  96. Stream size                              : 11.0 MiB (0%)
  97. Title                                    : Spanish-PGS
  98. Language                                 : Spanish
  99. Default                                  : No
  100. Forced                                   : No
  101. Menu
  102. 00:00:00.000                             : en:Chapter 01
  103. 00:03:25.330                             : en:Chapter 02
  104. 00:11:53.003                             : en:Chapter 03
  105. 00:22:21.089                             : en:Chapter 04
  106. 00:33:51.487                             : en:Chapter 05
  107. 00:45:22.636                             : en:Chapter 06
  108. 00:53:18.778                             : en:Chapter 07
  109. 01:02:37.086                             : en:Chapter 08
  110. 01:09:19.989                             : en:Chapter 09
  111. 01:15:20.474                             : en:Chapter 10
  112. 01:19:51.870                             : en:Chapter 11
  113. 01:28:30.346                             : en:Chapter 12
复制代码






                                       
                                       

                                       
                                       
                                       




回复

使用道具 举报

懒得打字嘛,点击右侧快捷回复 【右侧内容,后台自定义】
您需要登录后才可以回帖 登录 | 立即加入

本版积分规则

Archiver|小黑屋| 蓝光电影网 |网站地图

Copyright © 2021 Comsenz Inc. Powered by 蓝光电影网

蓝光电影网

本站内容由用户自主分享和转载自互联网,转载目的在于传递更多信息,并不代表本网赞同其观点和对其真实性负责。

如有侵权、违反国家法律政策行为,请联系我们,我们会第一时间及时清除和处理!

举报反馈邮箱:[email protected]

快速回复 返回顶部 返回列表