找回密码

蓝光电影网

查看: 56|回复: 0

[动作] 剑客 The.Swordsman.2020.KOREAN.1080p.BluRay.REMUX.AVC.DTS-HD.MA5.1-FGT 18.12GB

[复制链接]
蓝光币
515
发表于 2021-2-16 10:55:03 | 显示全部楼层 |阅读模式


◎译  名 剑客/Swordsman
◎片  名 ??
◎年  代 2020
◎产  地 韩国
◎类  别 行动
◎语  言 韩语
◎上映日期 2020-09-23(韩国)
◎IMDb评分  6.6/10 from 847 users
◎IMDb链接  https://www.imdb.com/title/tt7035004/
◎豆瓣评分 5.9/10 from 688 users
◎豆瓣链接 https://movie.douban.com/subject/27072716/
◎片  长 100分钟
◎导  演 崔在勋 Jae-Hoon Choi
◎主  演 张赫 Hyuk Jang
       郑满植 Man-shik Jeong
       乔·塔斯利姆 Joe Taslim
       崔镇浩 Jin-ho Choi
       金贤秀 Hyun-su Kim
       张铉诚 Hyeong-seong Jang
       李旼赫 Min-hyuk Lee
       池承炫 Ji Seung-hyeon
       金敏善 Min-seo Kim
       尹承勋 Yoon Seung-hoon
       池雄裴 Woong-bae Ji
◎标  签 韩国 | 行动 | 武侠 | 古装 | 韩国电影 | 2020 | 行动片 | 历史
◎简  介


  该片报告光海君废位期间,朝鲜最好剑客“泰率”(张赫 饰)为了寻觅消失的女儿再次举起剑的追击行动电影。
  1. Video
  2. ID                                       : 1
  3. ID in the original source medium         : 4113 (0x1011)
  4. Format                                   : AVC
  5. Format/Info                              : Advanced Video Codec
  6. Format profile                           : [email protected]
  7. Format settings                          : CABAC / 4 Ref Frames
  8. Format settings, CABAC                   : Yes
  9. Format settings, Reference frames        : 4 frames
  10. Codec ID                                 : V_MPEG4/ISO/AVC
  11. Duration                                 : 1 h 40 min
  12. Bit rate mode                            : Variable
  13. Bit rate                                 : 20.2 Mb/s
  14. Maximum bit rate                         : 21.0 Mb/s
  15. Width                                    : 1 920 pixels
  16. Height                                   : 1 080 pixels
  17. Display aspect ratio                     : 16:9
  18. Frame rate mode                          : Constant
  19. Frame rate                               : 23.976 (24000/1001/189150) FPS
  20. Color space                              : YUV
  21. Chroma subsampling                       : 4:2:0
  22. Bit depth                                : 8 bits
  23. Scan type                                : Progressive
  24. Bits/(Pixel*Frame)                       : 0.407
  25. Stream size                              : 14.2 GiB (78%)
  26. Language                                 : English
  27. Default                                  : No
  28. Forced                                   : No
  29. Original source medium                   : Blu-ray
  30. Audio #1
  31. ID                                       : 2
  32. ID in the original source medium         : 4352 (0x1100)
  33. Format                                   : DTS XLL
  34. Format/Info                              : Digital Theater Systems
  35. Commercial name                          : DTS-HD Master Audio
  36. Codec ID                                 : A_DTS
  37. Duration                                 : 1 h 40 min
  38. Bit rate mode                            : Variable
  39. Bit rate                                 : 2 448 kb/s
  40. Channel(s)                               : 6 channels
  41. Channel layout                           : C L R Ls Rs LFE
  42. Sampling rate                            : 48.0 kHz
  43. Frame rate                               : 93.750 FPS (512 SPF)
  44. Bit depth                                : 16 bits
  45. Compression mode                         : Lossless
  46. Stream size                              : 1.72 GiB (10%)
  47. Title                                    : DTS-HD MA 5.1
  48. Language                                 : Korean
  49. Default                                  : Yes
  50. Forced                                   : No
  51. Original source medium                   : Blu-ray
  52. Audio #2
  53. ID                                       : 3
  54. ID in the original source medium         : 4353 (0x1101)
  55. Format                                   : AC-3
  56. Format/Info                              : Audio Coding 3
  57. Commercial name                          : Dolby Digital
  58. Codec ID                                 : A_AC3
  59. Duration                                 : 1 h 40 min
  60. Bit rate mode                            : Constant
  61. Bit rate                                 : 384 kb/s
  62. Channel(s)                               : 2 channels
  63. Channel layout                           : L R
  64. Sampling rate                            : 48.0 kHz
  65. Frame rate                               : 31.250 FPS (1536 SPF)
  66. Compression mode                         : Lossy
  67. Stream size                              : 276 MiB (1%)
  68. Title                                    : DD 2.0
  69. Language                                 : Korean
  70. Service kind                             : Complete Main
  71. Default                                  : No
  72. Forced                                   : No
  73. Original source medium                   : Blu-ray
  74. Audio #3
  75. ID                                       : 4
  76. ID in the original source medium         : 4354 (0x1102)
  77. Format                                   : DTS XLL
  78. Format/Info                              : Digital Theater Systems
  79. Commercial name                          : DTS-HD Master Audio
  80. Codec ID                                 : A_DTS
  81. Duration                                 : 1 h 40 min
  82. Bit rate mode                            : Variable
  83. Bit rate                                 : 2 321 kb/s
  84. Channel(s)                               : 6 channels
  85. Channel layout                           : C L R Ls Rs LFE
  86. Sampling rate                            : 48.0 kHz
  87. Frame rate                               : 93.750 FPS (512 SPF)
  88. Bit depth                                : 16 bits
  89. Compression mode                         : Lossless
  90. Stream size                              : 1.63 GiB (9%)
  91. Title                                    : DTS-HD MA 5.1
  92. Language                                 : English
  93. Default                                  : No
  94. Forced                                   : No
  95. Original source medium                   : Blu-ray
  96. Audio #4
  97. ID                                       : 5
  98. ID in the original source medium         : 4355 (0x1103)
  99. Format                                   : AC-3
  100. Format/Info                              : Audio Coding 3
  101. Commercial name                          : Dolby Digital
  102. Codec ID                                 : A_AC3
  103. Duration                                 : 1 h 40 min
  104. Bit rate mode                            : Constant
  105. Bit rate                                 : 384 kb/s
  106. Channel(s)                               : 2 channels
  107. Channel layout                           : L R
  108. Sampling rate                            : 48.0 kHz
  109. Frame rate                               : 31.250 FPS (1536 SPF)
  110. Compression mode                         : Lossy
  111. Stream size                              : 276 MiB (1%)
  112. Title                                    : DD 2.0
  113. Language                                 : English
  114. Service kind                             : Complete Main
  115. Default                                  : No
  116. Forced                                   : No
  117. Original source medium                   : Blu-ray
  118. Text #1
  119. ID                                       : 6
  120. Format                                   : UTF-8
  121. Codec ID                                 : S_TEXT/UTF8
  122. Codec ID/Info                            : UTF-8 Plain Text
  123. Duration                                 : 1 h 33 min
  124. Bit rate                                 : 27 b/s
  125. Count of elements                        : 604
  126. Stream size                              : 18.6 KiB (0%)
  127. Title                                    : English-SRT
  128. Language                                 : English
  129. Default                                  : Yes
  130. Forced                                   : Yes
  131. Text #2
  132. ID                                       : 7
  133. ID in the original source medium         : 4608 (0x1200)
  134. Format                                   : PGS
  135. Muxing mode                              : zlib
  136. Codec ID                                 : S_HDMV/PGS
  137. Codec ID/Info                            : Picture based subtitle format used on BDs/HD-DVDs
  138. Duration                                 : 1 h 33 min
  139. Bit rate                                 : 17.6 kb/s
  140. Count of elements                        : 1212
  141. Stream size                              : 11.8 MiB (0%)
  142. Title                                    : English-PGS
  143. Language                                 : English
  144. Default                                  : No
  145. Forced                                   : No
  146. Original source medium                   : Blu-ray
  147. Menu
  148. 00:00:00.000                             : en:Chapter 01
  149. 00:07:30.992                             : en:Chapter 02
  150. 00:14:30.327                             : en:Chapter 03
  151. 00:22:50.535                             : en:Chapter 04
  152. 00:29:10.248                             : en:Chapter 05
  153. 00:35:15.154                             : en:Chapter 06
  154. 00:46:49.348                             : en:Chapter 07
  155. 00:55:49.054                             : en:Chapter 08
  156. 01:05:04.650                             : en:Chapter 09
  157. 01:16:46.852                             : en:Chapter 10
  158. 01:22:35.283                             : en:Chapter 11
  159. 01:36:59.104                             : en:Chapter 12
复制代码





                                       
                                       

                                       
                                       
                                       




回复

使用道具 举报

懒得打字嘛,点击右侧快捷回复 【右侧内容,后台自定义】
您需要登录后才可以回帖 登录 | 立即加入

本版积分规则

Archiver|小黑屋| 蓝光电影网 |网站地图

Copyright © 2021 Comsenz Inc. Powered by 蓝光电影网

蓝光电影网

本站内容由用户自主分享和转载自互联网,转载目的在于传递更多信息,并不代表本网赞同其观点和对其真实性负责。

如有侵权、违反国家法律政策行为,请联系我们,我们会第一时间及时清除和处理!

举报反馈邮箱:[email protected]

快速回复 返回顶部 返回列表