找回密码

蓝光电影网

查看: 19|回复: 0

[剧情] 渔民的朋友 Fishermans.Friends.2019.1080p.BluRay.REMUX.AVC.DTS-HD.MA.5.1-FGT 24.83GB

[复制链接]
蓝光币
519
发表于 2019-7-20 23:37:53 | 显示全部楼层 |阅读模式


◎译  名 渔民的朋友
◎片  名 Fisherman's Friends
◎年  代 2019
◎产  地 英国
◎类  别 剧情 / 笑剧 / 音乐
◎语  言 英语
◎上映日期 2019-03-15(英国)
◎IMDb评分  7.0/10 from 1139 users
◎IMDb链接  http://www.imdb.com/title/tt1648186
◎豆瓣评分 0/10 from 0 users
◎豆瓣链接 https://movie.douban.com/subject/30451958/
◎导  演 Chris Foggin
◎编  剧 Piers Ashworth / 梅格·伦纳德 Meg Leonard
◎主  演 詹姆斯·鲍弗 James Purefoy
      丹尼尔·梅斯 Daniel Mays
      塔彭丝·米德尔顿 Tuppence Middleton
      诺埃尔·克拉克 Noel Clarke
      克里斯托弗·维利尔斯 Christopher Villiers
      萨姆·斯温斯伯里 Sam Swainsbury
      大卫·海曼 David Hayman
      玛姬·斯蒂德 Maggie Steed

◎标  签 英国 | 真事改编 | 笑剧 | 音乐 | 实在事务改编 | 大海啊大海 | Documentary | 2019
◎简  介  
  Ten fisherman from Cornwall are signed by Universal Records and achieve a top ten hit with their debut album of Sea Shanties.
  1. Video
  2. ID                                       : 1
  3. Format                                   : AVC
  4. Format/Info                              : Advanced Video Codec
  5. Format profile                           : [email protected]
  6. Format settings                          : CABAC / 4 Ref Frames
  7. Format settings, CABAC                   : Yes
  8. Format settings, ReFrames                : 4 frames
  9. Codec ID                                 : V_MPEG4/ISO/AVC
  10. Duration                                 : 1 h 51 min
  11. Bit rate mode                            : Variable
  12. Bit rate                                 : 29.8 Mb/s
  13. Maximum bit rate                         : 33.0 Mb/s
  14. Width                                    : 1 920 pixels
  15. Height                                   : 1 080 pixels
  16. Display aspect ratio                     : 16:9
  17. Frame rate mode                          : Constant
  18. Frame rate                               : 24.000 FPS
  19. Color space                              : YUV
  20. Chroma subsampling                       : 4:2:0
  21. Bit depth                                : 8 bits
  22. Scan type                                : Progressive
  23. Bits/(Pixel*Frame)                       : 0.599
  24. Stream size                              : 23.3 GiB (94%)
  25. Title                                    : Fishermans.Friends.2019.1080p.BluRay.REMUX.AVC.DTS-HD.MA.5.1-FGT
  26. Language                                 : English
  27. Default                                  : No
  28. Forced                                   : No
  29. Audio
  30. ID                                       : 2
  31. Format                                   : DTS XLL
  32. Format/Info                              : Digital Theater Systems
  33. Commercial name                          : DTS-HD Master Audio
  34. Codec ID                                 : A_DTS
  35. Duration                                 : 1 h 51 min
  36. Bit rate mode                            : Variable
  37. Bit rate                                 : 1 988 kb/s
  38. Channel(s)                               : 6 channels
  39. Channel layout                           : C L R Ls Rs LFE
  40. Sampling rate                            : 48.0 kHz
  41. Frame rate                               : 93.750 FPS (512 SPF)
  42. Bit depth                                : 16 bits
  43. Compression mode                         : Lossless
  44. Stream size                              : 1.55 GiB (6%)
  45. Title                                    : Fishermans.Friends.2019.1080p.BluRay.REMUX.AVC.DTS-HD.MA.5.1-FGT
  46. Language                                 : English
  47. Default                                  : Yes
  48. Forced                                   : No
  49. Text #1
  50. ID                                       : 3
  51. Format                                   : UTF-8
  52. Codec ID                                 : S_TEXT/UTF8
  53. Codec ID/Info                            : UTF-8 Plain Text
  54. Duration                                 : 1 h 48 min
  55. Bit rate                                 : 87 b/s
  56. Count of elements                        : 1794
  57. Stream size                              : 69.4 KiB (0%)
  58. Title                                    : English-SRT
  59. Language                                 : English
  60. Default                                  : Yes
  61. Forced                                   : No
  62. Text #2
  63. ID                                       : 4
  64. Format                                   : PGS
  65. Muxing mode                              : zlib
  66. Codec ID                                 : S_HDMV/PGS
  67. Codec ID/Info                            : Picture based subtitle format used on BDs/HD-DVDs
  68. Duration                                 : 1 h 50 min
  69. Bit rate                                 : 53.4 kb/s
  70. Count of elements                        : 3924
  71. Stream size                              : 42.3 MiB (0%)
  72. Title                                    : English-PGS
  73. Language                                 : English
  74. Default                                  : No
  75. Forced                                   : No
  76. Menu
  77. 00:00:00.000                             : en:Chapter 01
  78. 00:09:07.375                             : en:Chapter 02
  79. 00:16:52.583                             : en:Chapter 03
  80. 00:22:52.041                             : en:Chapter 04
  81. 00:32:52.875                             : en:Chapter 05
  82. 00:39:42.958                             : en:Chapter 06
  83. 00:52:00.083                             : en:Chapter 07
  84. 00:58:03.750                             : en:Chapter 08
  85. 01:03:04.291                             : en:Chapter 09
  86. 01:13:04.375                             : en:Chapter 10
  87. 01:24:55.541                             : en:Chapter 11
  88. 01:33:00.625                             : en:Chapter 12
复制代码






                                       
                                       

                                       
                                       
                                       




回复

使用道具 举报

懒得打字嘛,点击右侧快捷回复 【右侧内容,后台自定义】
您需要登录后才可以回帖 登录 | 立即加入

本版积分规则

Archiver|小黑屋| 蓝光电影网 |网站地图

Copyright © 2021 Comsenz Inc. Powered by 蓝光电影网

蓝光电影网

本站内容由用户自主分享和转载自互联网,转载目的在于传递更多信息,并不代表本网赞同其观点和对其真实性负责。

如有侵权、违反国家法律政策行为,请联系我们,我们会第一时间及时清除和处理!

举报反馈邮箱:[email protected]

快速回复 返回顶部 返回列表