找回密码

蓝光电影网

查看: 50|回复: 0

[喜剧] 神奇乐园历险记 Wonder.Park.2019.1080p.BluRay.REMUX.AVC.DTS-HD.MA.TrueHD.7.1-FGT 23.17GB

[复制链接]
蓝光币
730
发表于 2019-6-27 02:18:01 | 显示全部楼层 |阅读模式


◎译  名 奇异乐园历险记 / Amusement Park / 奇异游乐园 / 游乐园 / 奇异梦乐园(港)
◎片  名 Wonder Park
◎年  代 2019
◎产  地 美国 / 西班牙
◎类  别 笑剧 / 动画 / 奇异 / 冒险
◎语  言 英语
◎上映日期 2019-03-15(美国) / 2019-04-19(中国大陆)
◎IMDb评分  5.7/10 from 2627 users
◎IMDb链接  http://www.imdb.com/title/tt6428676
◎豆瓣评分 6.5/10 from 1556 users
◎豆瓣链接 https://movie.douban.com/subject/26662282/
◎片  长 86分钟
◎导  演 迪兰·布朗 Dylan Brown
◎编  剧 乔什·阿佩尔鲍姆 Josh Appelbaum / 安德烈·内梅克 André Nemec / 罗伯特·戈登 Robert Gordon
◎主  演 索菲亚·玛丽 Sofia Mali
      詹妮弗·加纳 Jennifer Garner
      肯·哈德森·坎贝尔 Ken Hudson Campbell
      基南·汤普森 Kenan Thompson
      米拉·库尼斯 Mila Kunis
      约翰·奥利弗 John Oliver
      郑肯 Ken Jeong
      诺尔贝特·里奥·布茨 Norbert Leo Butz
      马修·布罗德里克 Matthew Broderick
      凯特·麦克格雷格-斯图尔特 Kate McGregor-Stewart
      凯文·张伯伦 Kevin Chamberlin
      凯斯·索西 Kath Soucie

◎标  签 动画 | 奇异 | 美国 | 2019 | 冒险 | 笑剧 | 派拉蒙 | 亲情
◎简  介  
  一位极富缔造力的女孩小六月,偶然间发现了一座奇异的乐园。在乐园里,有着林林总总惊险刺激的游乐设备和五花八门的动物朋友。在这个奇异的天下里,将会发生怎样意想不到的故事呢?
  1. Video
  2. ID                                       : 1
  3. Format                                   : AVC
  4. Format/Info                              : Advanced Video Codec
  5. Format profile                           : [email protected]
  6. Format settings                          : CABAC / 4 Ref Frames
  7. Format settings, CABAC                   : Yes
  8. Format settings, ReFrames                : 4 frames
  9. Codec ID                                 : V_MPEG4/ISO/AVC
  10. Duration                                 : 1 h 25 min
  11. Bit rate mode                            : Variable
  12. Bit rate                                 : 27.0 Mb/s
  13. Maximum bit rate                         : 29.0 Mb/s
  14. Width                                    : 1 920 pixels
  15. Height                                   : 1 080 pixels
  16. Display aspect ratio                     : 16:9
  17. Frame rate mode                          : Constant
  18. Frame rate                               : 23.976 (24000/1001) FPS
  19. Color space                              : YUV
  20. Chroma subsampling                       : 4:2:0
  21. Bit depth                                : 8 bits
  22. Scan type                                : Progressive
  23. Bits/(Pixel*Frame)                       : 0.543
  24. Stream size                              : 16.1 GiB (69%)
  25. Title                                    : Wonder.Park.2019.1080p.BluRay.REMUX.AVC.DTS-HD.MA.TrueHD.7.1-FGT
  26. Language                                 : English
  27. Default                                  : No
  28. Forced                                   : No
  29. Audio #1
  30. ID                                       : 2
  31. Format                                   : MLP FBA
  32. Format/Info                              : Meridian Lossless Packing FBA
  33. Commercial name                          : Dolby TrueHD
  34. Codec ID                                 : A_TRUEHD
  35. Duration                                 : 1 h 25 min
  36. Bit rate mode                            : Variable
  37. Bit rate                                 : 4 327 kb/s
  38. Maximum bit rate                         : 6 264 kb/s
  39. Channel(s)                               : 8 channels
  40. Channel layout                           : L R C LFE Ls Rs Lb Rb
  41. Sampling rate                            : 48.0 kHz
  42. Frame rate                               : 1 200.000 FPS (40 SPF)
  43. Compression mode                         : Lossless
  44. Stream size                              : 2.58 GiB (11%)
  45. Title                                    : Wonder.Park.2019.1080p.BluRay.REMUX.AVC.DTS-HD.MA.TrueHD.7.1-FGT
  46. Language                                 : English
  47. Default                                  : Yes
  48. Forced                                   : No
  49. Audio #2
  50. ID                                       : 3
  51. Format                                   : DTS XLL
  52. Format/Info                              : Digital Theater Systems
  53. Commercial name                          : DTS-HD Master Audio
  54. Codec ID                                 : A_DTS
  55. Duration                                 : 1 h 25 min
  56. Bit rate mode                            : Variable
  57. Bit rate                                 : 4 878 kb/s
  58. Channel(s)                               : 8 channels
  59. Channel layout                           : C L R LFE Lb Rb Lss Rss
  60. Sampling rate                            : 48.0 kHz
  61. Frame rate                               : 93.750 FPS (512 SPF)
  62. Bit depth                                : 24 bits
  63. Compression mode                         : Lossless
  64. Stream size                              : 2.91 GiB (13%)
  65. Title                                    : Wonder.Park.2019.1080p.BluRay.REMUX.AVC.DTS-HD.MA.TrueHD.7.1-FGT
  66. Language                                 : English
  67. Default                                  : No
  68. Forced                                   : No
  69. Audio #3
  70. ID                                       : 4
  71. Format                                   : AC-3
  72. Format/Info                              : Audio Coding 3
  73. Commercial name                          : Dolby Digital
  74. Codec ID                                 : A_AC3
  75. Duration                                 : 1 h 25 min
  76. Bit rate mode                            : Constant
  77. Bit rate                                 : 640 kb/s
  78. Channel(s)                               : 6 channels
  79. Channel layout                           : L R C LFE Ls Rs
  80. Sampling rate                            : 48.0 kHz
  81. Frame rate                               : 31.250 FPS (1536 SPF)
  82. Bit depth                                : 16 bits
  83. Compression mode                         : Lossy
  84. Stream size                              : 390 MiB (2%)
  85. Title                                    : Wonder.Park.2019.1080p.BluRay.REMUX.AVC.DTS-HD.MA.TrueHD.7.1-FGT
  86. Language                                 : English
  87. Service kind                             : Complete Main
  88. Default                                  : No
  89. Forced                                   : No
  90. Audio #4
  91. ID                                       : 5
  92. Format                                   : AC-3
  93. Format/Info                              : Audio Coding 3
  94. Commercial name                          : Dolby Digital
  95. Codec ID                                 : A_AC3
  96. Duration                                 : 1 h 25 min
  97. Bit rate mode                            : Constant
  98. Bit rate                                 : 640 kb/s
  99. Channel(s)                               : 6 channels
  100. Channel layout                           : L R C LFE Ls Rs
  101. Sampling rate                            : 48.0 kHz
  102. Frame rate                               : 31.250 FPS (1536 SPF)
  103. Bit depth                                : 16 bits
  104. Compression mode                         : Lossy
  105. Stream size                              : 390 MiB (2%)
  106. Title                                    : Wonder.Park.2019.1080p.BluRay.REMUX.AVC.DTS-HD.MA.TrueHD.7.1-FGT
  107. Language                                 : English
  108. Service kind                             : Complete Main
  109. Default                                  : No
  110. Forced                                   : No
  111. Audio #5
  112. ID                                       : 6
  113. Format                                   : AC-3
  114. Format/Info                              : Audio Coding 3
  115. Commercial name                          : Dolby Digital
  116. Codec ID                                 : A_AC3
  117. Duration                                 : 1 h 25 min
  118. Bit rate mode                            : Constant
  119. Bit rate                                 : 640 kb/s
  120. Channel(s)                               : 6 channels
  121. Channel layout                           : L R C LFE Ls Rs
  122. Sampling rate                            : 48.0 kHz
  123. Frame rate                               : 31.250 FPS (1536 SPF)
  124. Bit depth                                : 16 bits
  125. Compression mode                         : Lossy
  126. Stream size                              : 390 MiB (2%)
  127. Title                                    : Wonder.Park.2019.1080p.BluRay.REMUX.AVC.DTS-HD.MA.TrueHD.7.1-FGT
  128. Language                                 : Spanish
  129. Service kind                             : Complete Main
  130. Default                                  : No
  131. Forced                                   : No
  132. Audio #6
  133. ID                                       : 7
  134. Format                                   : AC-3
  135. Format/Info                              : Audio Coding 3
  136. Commercial name                          : Dolby Digital
  137. Codec ID                                 : A_AC3
  138. Duration                                 : 1 h 25 min
  139. Bit rate mode                            : Constant
  140. Bit rate                                 : 640 kb/s
  141. Channel(s)                               : 6 channels
  142. Channel layout                           : L R C LFE Ls Rs
  143. Sampling rate                            : 48.0 kHz
  144. Frame rate                               : 31.250 FPS (1536 SPF)
  145. Bit depth                                : 16 bits
  146. Compression mode                         : Lossy
  147. Stream size                              : 390 MiB (2%)
  148. Title                                    : Wonder.Park.2019.1080p.BluRay.REMUX.AVC.DTS-HD.MA.TrueHD.7.1-FGT
  149. Language                                 : French
  150. Service kind                             : Complete Main
  151. Default                                  : No
  152. Forced                                   : No
  153. Text #1
  154. ID                                       : 8
  155. Format                                   : UTF-8
  156. Codec ID                                 : S_TEXT/UTF8
  157. Codec ID/Info                            : UTF-8 Plain Text
  158. Duration                                 : 1 h 17 min
  159. Bit rate                                 : 65 b/s
  160. Count of elements                        : 1209
  161. Stream size                              : 37.0 KiB (0%)
  162. Title                                    : English-SRT
  163. Language                                 : English
  164. Default                                  : Yes
  165. Forced                                   : No
  166. Text #2
  167. ID                                       : 9
  168. Format                                   : PGS
  169. Muxing mode                              : zlib
  170. Codec ID                                 : S_HDMV/PGS
  171. Codec ID/Info                            : Picture based subtitle format used on BDs/HD-DVDs
  172. Duration                                 : 1 h 17 min
  173. Bit rate                                 : 41.1 kb/s
  174. Count of elements                        : 2210
  175. Stream size                              : 22.7 MiB (0%)
  176. Title                                    : English-PGS
  177. Language                                 : English
  178. Default                                  : No
  179. Forced                                   : No
  180. Text #3
  181. ID                                       : 10
  182. Format                                   : PGS
  183. Muxing mode                              : zlib
  184. Codec ID                                 : S_HDMV/PGS
  185. Codec ID/Info                            : Picture based subtitle format used on BDs/HD-DVDs
  186. Duration                                 : 1 h 19 min
  187. Bit rate                                 : 51.8 kb/s
  188. Count of elements                        : 3010
  189. Stream size                              : 29.3 MiB (0%)
  190. Title                                    : English-SDH-PGS
  191. Language                                 : English
  192. Default                                  : No
  193. Forced                                   : No
  194. Text #4
  195. ID                                       : 11
  196. Format                                   : PGS
  197. Muxing mode                              : zlib
  198. Codec ID                                 : S_HDMV/PGS
  199. Codec ID/Info                            : Picture based subtitle format used on BDs/HD-DVDs
  200. Duration                                 : 1 h 17 min
  201. Bit rate                                 : 39.8 kb/s
  202. Count of elements                        : 2194
  203. Stream size                              : 22.0 MiB (0%)
  204. Title                                    : Spanish-PGS
  205. Language                                 : Spanish
  206. Default                                  : No
  207. Forced                                   : No
  208. Text #5
  209. ID                                       : 12
  210. Format                                   : PGS
  211. Muxing mode                              : zlib
  212. Codec ID                                 : S_HDMV/PGS
  213. Codec ID/Info                            : Picture based subtitle format used on BDs/HD-DVDs
  214. Duration                                 : 3 s 858 ms
  215. Bit rate                                 : 22.8 kb/s
  216. Count of elements                        : 2
  217. Stream size                              : 10.7 KiB (0%)
  218. Title                                    : Spanish-FORCED-PGS
  219. Language                                 : Spanish
  220. Default                                  : No
  221. Forced                                   : No
  222. Text #6
  223. ID                                       : 13
  224. Format                                   : PGS
  225. Muxing mode                              : zlib
  226. Codec ID                                 : S_HDMV/PGS
  227. Codec ID/Info                            : Picture based subtitle format used on BDs/HD-DVDs
  228. Duration                                 : 1 h 17 min
  229. Bit rate                                 : 42.1 kb/s
  230. Count of elements                        : 2762
  231. Stream size                              : 23.3 MiB (0%)
  232. Title                                    : French-PGS
  233. Language                                 : French
  234. Default                                  : No
  235. Forced                                   : No
  236. Text #7
  237. ID                                       : 14
  238. Format                                   : PGS
  239. Muxing mode                              : zlib
  240. Codec ID                                 : S_HDMV/PGS
  241. Codec ID/Info                            : Picture based subtitle format used on BDs/HD-DVDs
  242. Duration                                 : 3 s 859 ms
  243. Bit rate                                 : 34.2 kb/s
  244. Count of elements                        : 2
  245. Stream size                              : 16.1 KiB (0%)
  246. Title                                    : French-FORCED-PGS
  247. Language                                 : French
  248. Default                                  : No
  249. Forced                                   : No
  250. Menu
  251. 00:00:00.000                             : en:Chapter 01
  252. 00:06:34.811                             : en:Chapter 02
  253. 00:12:05.474                             : en:Chapter 03
  254. 00:20:22.846                             : en:Chapter 04
  255. 00:25:49.589                             : en:Chapter 05
  256. 00:33:03.648                             : en:Chapter 06
  257. 00:39:14.185                             : en:Chapter 07
  258. 00:47:39.648                             : en:Chapter 08
  259. 00:54:39.442                             : en:Chapter 09
  260. 01:00:32.462                             : en:Chapter 10
  261. 01:06:17.807                             : en:Chapter 11
  262. 01:13:12.054                             : en:Chapter 12
  263. 01:17:49.748                             : en:Chapter 13
复制代码






                                       
                                       

                                       
                                       
                                       




回复

使用道具 举报

懒得打字嘛,点击右侧快捷回复 【右侧内容,后台自定义】
您需要登录后才可以回帖 登录 | 立即加入

本版积分规则

Archiver|小黑屋| 蓝光电影网 |网站地图

Copyright © 2021 Comsenz Inc. Powered by 蓝光电影网

蓝光电影网

本站内容由用户自主分享和转载自互联网,转载目的在于传递更多信息,并不代表本网赞同其观点和对其真实性负责。

如有侵权、违反国家法律政策行为,请联系我们,我们会第一时间及时清除和处理!

举报反馈邮箱:[email protected]

快速回复 返回顶部 返回列表