找回密码

蓝光电影网

查看: 20|回复: 0

[喜剧] 乌龙服务员/都是侍者惹的祸 Blame.It.on.the.Bellboy.1992.1080p.BluRay.x264.DTS-FGT 7.13GB

[复制链接]
蓝光币
519
发表于 2020-11-25 08:53:57 | 显示全部楼层 |阅读模式


◎译  名 乌龙办事员/都是侍者惹的祸
◎片  名 Blame It on the Bellboy
◎年  代 1992
◎产  地 英国,美国
◎类  别 笑剧
◎语  言 英语
◎上映日期 1992-01-24
◎IMDb评分  5.6/10 from 2419 users
◎IMDb链接  https://www.imdb.com/title/tt0103827/
◎豆瓣评分 7.6/10 from 142 users
◎豆瓣链接 https://movie.douban.com/subject/1302825/
◎片  长 78 分钟
◎导  演 马克·赫尔曼 Mark Herman
◎编  剧 马克·赫尔曼 Mark Herman
◎主  演 达德利·摩尔 Dudley Moore
       布莱恩·布朗 Bryan Brown
       帕齐·肯西特 Patsy Kensit
       罗尼·斯蒂芬斯 Ronnie Stevens
       艾莉森·斯戴曼 Alison Steadman
       安德烈亚斯·卡楚拉斯 Andreas Katsulas
       林赛·安德森 Lindsay Anderson
       亚力克斯·诺顿 Alex Norton
       佩内洛普·威尔顿 Penelope Wilton
       理查德·格雷弗斯 Richard Griffiths
       布隆森·皮诺切特 Bronson Pinchot
       Andy Bradford
       吉姆·卡特 Jim Carter
       约翰·格里洛 John Grillo
◎标  签 笑剧 | 英国 | 美国 | 美国电影 | 威尼斯 | 杀手笑剧 | 恋爱 | 1992
◎简  介


  霍顿师长(达德利·摩尔 Dudley Moore 饰)住进了加百利酒店,决议在那边同婚姻先容所先容的女子帕特丽夏(佩内洛普·威尔顿 Penelope Wilton 饰)碰头。美国来的梅尔文(达德利·摩尔 Dudley Moore 饰)师长也在同日入住酒店,他来这里是为了完成自己的工作。与此同时,杀手迈克(布莱恩·布朗 Bryan Brown 饰)也居住于此,潜伏在黑黑暗监视着自己的猎物,伺机而动。
  
  原本八竿子打不到一路去的三小我,由于一个糊里糊涂的办事生送错了信而被鬼使神差的搅合到了一路,古怪而又荒诞的意外持续不断的发生。不但如此,这连续串的毛病还在误打误撞之下的在迈克和帕特丽夏之间牵起了红线。
  1. Video
  2. ID                                       : 1
  3. Format                                   : AVC
  4. Format/Info                              : Advanced Video Codec
  5. Format profile                           : [email protected]
  6. Format settings                          : CABAC / 4 Ref Frames
  7. Format settings, CABAC                   : Yes
  8. Format settings, Reference frames        : 4 frames
  9. Codec ID                                 : V_MPEG4/ISO/AVC
  10. Duration                                 : 1 h 18 min
  11. Bit rate                                 : 11.5 Mb/s
  12. Width                                    : 1 920 pixels
  13. Height                                   : 1 036 pixels
  14. Display aspect ratio                     : 1.85:1
  15. Frame rate mode                          : Constant
  16. Frame rate                               : 23.976 (24000/1001/189150) FPS
  17. Color space                              : YUV
  18. Chroma subsampling                       : 4:2:0
  19. Bit depth                                : 8 bits
  20. Scan type                                : Progressive
  21. Bits/(Pixel*Frame)                       : 0.241
  22. Stream size                              : 6.30 GiB (88%)
  23. Title                                    : Blame.It.on.the.Bellboy.1992.1080p.BluRay.x264.DTS-FGT
  24. Writing library                          : x264 core 148 r2748 97eaef2
  25. Encoding settings                        : cabac=1 / ref=4 / deblock=1:-2:-2 / analyse=0x3:0x113 / me=umh / subme=9 / psy=1 / psy_rd=1.00:0.15 / mixed_ref=1 / me_range=16 / chroma_me=1 / trellis=2 / 8x8dct=1 / cqm=0 / deadzone=21,11 / fast_pskip=1 / chroma_qp_offset=-3 / threads=24 / lookahead_threads=3 / sliced_threads=0 / nr=0 / decimate=1 / interlaced=0 / bluray_compat=0 / constrained_intra=0 / bframes=3 / b_pyramid=2 / b_adapt=1 / b_bias=0 / direct=3 / weightb=1 / open_gop=0 / weightp=2 / keyint=250 / keyint_min=25 / scenecut=40 / intra_refresh=0 / rc_lookahead=50 / rc=2pass / mbtree=1 / bitrate=11500 / ratetol=1.0 / qcomp=0.60 / qpmin=0 / qpmax=69 / qpstep=4 / cplxblur=20.0 / qblur=0.5 / vbv_maxrate=31250 / vbv_bufsize=31250 / nal_hrd=none / filler=0 / ip_ratio=1.40 / aq=1:1.00
  26. Language                                 : English
  27. Default                                  : Yes
  28. Forced                                   : No
  29. Audio
  30. ID                                       : 2
  31. ID in the original source medium         : 4352 (0x1100)
  32. Format                                   : DTS
  33. Format/Info                              : Digital Theater Systems
  34. Codec ID                                 : A_DTS
  35. Duration                                 : 1 h 18 min
  36. Bit rate mode                            : Constant
  37. Bit rate                                 : 1 509 kb/s
  38. Channel(s)                               : 6 channels
  39. Channel layout                           : C L R Ls Rs LFE
  40. Sampling rate                            : 48.0 kHz
  41. Frame rate                               : 93.750 FPS (512 SPF)
  42. Bit depth                                : 16 bits
  43. Compression mode                         : Lossy
  44. Stream size                              : 847 MiB (12%)
  45. Title                                    : Blame.It.on.the.Bellboy.1992.1080p.BluRay.x264.DTS-FGT
  46. Language                                 : English
  47. Default                                  : No
  48. Forced                                   : No
  49. Original source medium                   : Blu-ray
  50. Text
  51. ID                                       : 3
  52. Format                                   : UTF-8
  53. Codec ID                                 : S_TEXT/UTF8
  54. Codec ID/Info                            : UTF-8 Plain Text
  55. Duration                                 : 1 h 15 min
  56. Bit rate                                 : 47 b/s
  57. Count of elements                        : 846
  58. Stream size                              : 26.4 KiB (0%)
  59. Language                                 : English
  60. Default                                  : Yes
  61. Forced                                   : No
  62. Menu
  63. 00:00:00.000                             : en:Chapter 00
  64. 00:14:34.164                             : en:Chapter 01
  65. 00:23:25.195                             : en:Chapter 02
  66. 00:35:04.852                             : en:Chapter 03
  67. 00:43:42.411                             : en:Chapter 04
  68. 00:54:13.208                             : en:Chapter 05
  69. 01:02:11.561                             : en:Chapter 06
  70. 01:09:21.866                             : en:Chapter 07
复制代码





                                       
                                       

                                       
                                       
                                       




回复

使用道具 举报

懒得打字嘛,点击右侧快捷回复 【右侧内容,后台自定义】
您需要登录后才可以回帖 登录 | 立即加入

本版积分规则

Archiver|小黑屋| 蓝光电影网 |网站地图

Copyright © 2021 Comsenz Inc. Powered by 蓝光电影网

蓝光电影网

本站内容由用户自主分享和转载自互联网,转载目的在于传递更多信息,并不代表本网赞同其观点和对其真实性负责。

如有侵权、违反国家法律政策行为,请联系我们,我们会第一时间及时清除和处理!

举报反馈邮箱:[email protected]

快速回复 返回顶部 返回列表