找回密码

蓝光电影网

查看: 18|回复: 0

[剧情] 良知堡垒 The.Public.2018.1080p.BluRay.REMUX.AVC.DTS-HD.MA.5.1-FGT 26.38GB

[复制链接]
蓝光币
511
发表于 2019-7-20 23:31:16 | 显示全部楼层 |阅读模式


◎译  名 知己堡垒
◎片  名 The Public
◎年  代 2018
◎产  地 美国
◎类  别 剧情
◎语  言 英语
◎上映日期 2018-01-31(圣芭芭拉电影节)
◎IMDb评分  6.5/10 from 749 users
◎IMDb链接  http://www.imdb.com/title/tt3294746
◎豆瓣评分 7.4/10 from 71 users
◎豆瓣链接 https://movie.douban.com/subject/26961746/
◎片  长 119分钟
◎导  演 艾米利奥·艾斯特维兹 Emilio Estevez
◎编  剧 艾米利奥·艾斯特维兹 Emilio Estevez
◎主  演 吉娜·马隆 Jena Malone
      泰勒·席林 Taylor Schilling
      亚历克·鲍德温 Alec Baldwin
      艾米利奥·艾斯特维兹 Emilio Estevez
      克里斯蒂安·史莱特 Christian Slater
      加布里埃尔·尤尼恩 Gabrielle Union
      迈克尔·肯尼斯·威廉姆斯 Michael Kenneth Williams
      杰弗里·怀特 Jeffrey Wright
      贾克波·瓦格斯 Jacob Vargas
      理查德·琼斯 Richard T. Jones
      斯宾塞·加雷特 Spencer Garrett
      Laura Dejean
      Michelle Poole
      Brian Wolfman Black Bowman
      Brian Gallagher

◎标  签 美国 | 2018 | 美国电影 | 上影节 | 图书馆 | 剧情 | SIFF2019 | 电影节
◎简  介  
  凛冬忽至,一股北极刮来的冷空气毫无征象地南下,攻击了美国俄亥俄州的西南部城市辛辛那提。对于若何应对极端天气,公共图书馆的治理者和无家可归的人们发生了分歧定见,其中一些流浪者夜间躲进图书馆中,以抵抗室外的严寒。但是,这一原本温顺的抵抗行为却逐步演变成一场僵局。警方介入观察,媒体三言两语,各方都不竭测度着工作的原委,诡计复原真相。正如《圣经》中凡人与大力神角力的故事一样,这部影片触及到了现今存在于美国的很多题目,包括物资上的流浪失所和精神上的病患孤独,而影片中的一切都发生在民主最初的依存地——公共图书馆中。
  1. Video
  2. ID                                       : 1
  3. Format                                   : AVC
  4. Format/Info                              : Advanced Video Codec
  5. Format profile                           : [email protected]
  6. Format settings                          : CABAC / 4 Ref Frames
  7. Format settings, CABAC                   : Yes
  8. Format settings, ReFrames                : 4 frames
  9. Codec ID                                 : V_MPEG4/ISO/AVC
  10. Duration                                 : 1 h 59 min
  11. Bit rate mode                            : Variable
  12. Bit rate                                 : 29.9 Mb/s
  13. Maximum bit rate                         : 33.0 Mb/s
  14. Width                                    : 1 920 pixels
  15. Height                                   : 1 080 pixels
  16. Display aspect ratio                     : 16:9
  17. Frame rate mode                          : Constant
  18. Frame rate                               : 23.976 (24000/1001) FPS
  19. Color space                              : YUV
  20. Chroma subsampling                       : 4:2:0
  21. Bit depth                                : 8 bits
  22. Scan type                                : Progressive
  23. Bits/(Pixel*Frame)                       : 0.601
  24. Stream size                              : 24.9 GiB (95%)
  25. Title                                    : The.Public.2018.1080p.BluRay.REMUX.AVC.DTS-HD.MA.5.1-FGT
  26. Language                                 : English
  27. Default                                  : No
  28. Forced                                   : No
  29. Audio
  30. ID                                       : 2
  31. Format                                   : DTS XLL
  32. Format/Info                              : Digital Theater Systems
  33. Commercial name                          : DTS-HD Master Audio
  34. Codec ID                                 : A_DTS
  35. Duration                                 : 1 h 59 min
  36. Bit rate mode                            : Variable
  37. Bit rate                                 : 1 687 kb/s
  38. Channel(s)                               : 6 channels
  39. Channel layout                           : C L R Ls Rs LFE
  40. Sampling rate                            : 48.0 kHz
  41. Frame rate                               : 93.750 FPS (512 SPF)
  42. Bit depth                                : 16 bits
  43. Compression mode                         : Lossless
  44. Stream size                              : 1.41 GiB (5%)
  45. Title                                    : The.Public.2018.1080p.BluRay.REMUX.AVC.DTS-HD.MA.5.1-FGT
  46. Language                                 : English
  47. Default                                  : Yes
  48. Forced                                   : No
  49. Text #1
  50. ID                                       : 3
  51. Format                                   : UTF-8
  52. Codec ID                                 : S_TEXT/UTF8
  53. Codec ID/Info                            : UTF-8 Plain Text
  54. Duration                                 : 1 h 58 min
  55. Bit rate                                 : 72 b/s
  56. Count of elements                        : 1914
  57. Stream size                              : 63.0 KiB (0%)
  58. Title                                    : English-SRT
  59. Language                                 : English
  60. Default                                  : Yes
  61. Forced                                   : No
  62. Text #2
  63. ID                                       : 4
  64. Format                                   : PGS
  65. Muxing mode                              : zlib
  66. Codec ID                                 : S_HDMV/PGS
  67. Codec ID/Info                            : Picture based subtitle format used on BDs/HD-DVDs
  68. Duration                                 : 1 h 58 min
  69. Bit rate                                 : 53.2 kb/s
  70. Count of elements                        : 4113
  71. Stream size                              : 45.1 MiB (0%)
  72. Title                                    : English-PGS
  73. Language                                 : English
  74. Default                                  : No
  75. Forced                                   : No
  76. Text #3
  77. ID                                       : 5
  78. Format                                   : PGS
  79. Muxing mode                              : zlib
  80. Codec ID                                 : S_HDMV/PGS
  81. Codec ID/Info                            : Picture based subtitle format used on BDs/HD-DVDs
  82. Duration                                 : 1 h 58 min
  83. Bit rate                                 : 41.6 kb/s
  84. Count of elements                        : 3517
  85. Stream size                              : 35.2 MiB (0%)
  86. Title                                    : Spanish-PGS
  87. Language                                 : Spanish
  88. Default                                  : No
  89. Forced                                   : No
  90. Text #4
  91. ID                                       : 6
  92. Format                                   : PGS
  93. Muxing mode                              : zlib
  94. Codec ID                                 : S_HDMV/PGS
  95. Codec ID/Info                            : Picture based subtitle format used on BDs/HD-DVDs
  96. Duration                                 : 104 ms
  97. Bit rate                                 : 5 384 b/s
  98. Count of elements                        : 2
  99. Stream size                              : 70.0 Bytes (0%)
  100. Title                                    : English-FORCED-PGS
  101. Language                                 : English
  102. Default                                  : No
  103. Forced                                   : No
  104. Menu
  105. 00:00:00.000                             : en:Chapter 01
  106. 00:07:19.439                             : en:Chapter 02
  107. 00:20:33.106                             : en:Chapter 03
  108. 00:30:43.967                             : en:Chapter 04
  109. 00:41:38.621                             : en:Chapter 05
  110. 00:48:34.411                             : en:Chapter 06
  111. 00:58:33.343                             : en:Chapter 07
  112. 01:08:04.789                             : en:Chapter 08
  113. 01:22:06.880                             : en:Chapter 09
  114. 01:30:37.014                             : en:Chapter 10
  115. 01:37:30.886                             : en:Chapter 11
  116. 01:44:10.160                             : en:Chapter 12
复制代码






                                       
                                       

                                       
                                       
                                       




回复

使用道具 举报

懒得打字嘛,点击右侧快捷回复 【右侧内容,后台自定义】
您需要登录后才可以回帖 登录 | 立即加入

本版积分规则

Archiver|小黑屋| 蓝光电影网 |网站地图

Copyright © 2021 Comsenz Inc. Powered by 蓝光电影网

蓝光电影网

本站内容由用户自主分享和转载自互联网,转载目的在于传递更多信息,并不代表本网赞同其观点和对其真实性负责。

如有侵权、违反国家法律政策行为,请联系我们,我们会第一时间及时清除和处理!

举报反馈邮箱:[email protected]

快速回复 返回顶部 返回列表