找回密码

蓝光电影网

查看: 39|回复: 0

[喜剧] 森林奇缘 The.Stolen.Princess.2018.1080p.BluRay.REMUX.AVC.DTS-HD.MA.5.1-FGT 23.47GB

[复制链接]
蓝光币
730
发表于 2019-6-26 21:52:57 | 显示全部楼层 |阅读模式


◎译  名 森林奇缘 / The Stolen Princess / Vykradena pryntsesa: Ruslan i Lyudmyla / 被诱拐的公主
◎片  名 Викрадена принцеса: Руслан i Людмила
◎年  代 2018
◎产  地 乌克兰
◎类  别 笑剧 / 动画 / 奇异
◎语  言 乌克兰语
◎上映日期 2018-03-07(乌克兰) / 2019-01-18(中国大陆)
◎IMDb评分  6.2/10 from 1421 users
◎IMDb链接  http://www.imdb.com/title/tt5378092
◎豆瓣评分 5.5/10 from 791 users
◎豆瓣链接 https://movie.douban.com/subject/26992446/
◎片  长 91分钟
◎导  演 奥列格·马拉姆兹 Oleh Malamuzh
◎编  剧 普希金 Alexander Pushkin / 奥列格·马拉姆兹 Yaroslav Voytseshek
◎主  演 娜迪亚·多洛菲娃 Nadezhda Dorofeeva
      阿勒克西·扎夫戈罗德尼 Aleksey Zavgorodniy
      耶文·马鲁卡 Yevhen Malukha
      谢尔盖·普里特拉 Serhiy Prytula
      尤里·霍尔布诺夫 Yuriy Horbunov
      奥列格·米哈伊鲁塔 Oleh Mykhailyuta
      米科拉·博克兰 Nikolay Boklan
      玛丽亚·弗罗西尼纳 Mariya Efrosinina
      奥列格·沃洛申科 Oleh Voloschenko
      罗曼·卢茨基 Roman Lutskyi
      杰森·格里菲斯 Jason Griffith
      萨马拉·娜耶姆 Samara Naeymi
      艾莉森·雷·罗森菲尔德 Alyson Leigh Rosenfeld
      比伊·鲍勃·汤普森 Billy Bob Thompson
      戴维·威尔斯 David Wills

◎标  签 动画 | 奇异 | 乌克兰 | 恋爱 | 冒险 | 笑剧 | 浪漫 | 2018
◎简  介  
  故事发生在勇敢的骑士、美丽的公主和与巫师战役的时代。流浪艺术家鲁斯梦熊想成为一位骑士,偶遇了美丽的公主米拉并坠入爱河,他们在城堡外度过了美好的时光。但是,幸运并没有延续太久,邪恶的魔法师切诺莫为了告竣诡计,在鲁斯兰的眼前用魔法漩涡劫走了米拉。忙乱以后,鲁斯兰起头试图穿越魔法森林寻觅公主,经过一系列奇妙生物的“助攻”后克服了重重障碍,终极克服了邪恶魔法,与公主幸运的生活在一路。
  1. Video
  2. ID                                       : 1
  3. Format                                   : AVC
  4. Format/Info                              : Advanced Video Codec
  5. Format profile                           : [email protected]
  6. Format settings                          : CABAC / 4 Ref Frames
  7. Format settings, CABAC                   : Yes
  8. Format settings, ReFrames                : 4 frames
  9. Codec ID                                 : V_MPEG4/ISO/AVC
  10. Duration                                 : 1 h 30 min
  11. Bit rate mode                            : Variable
  12. Bit rate                                 : 33.2 Mb/s
  13. Maximum bit rate                         : 38.0 Mb/s
  14. Width                                    : 1 920 pixels
  15. Height                                   : 1 080 pixels
  16. Display aspect ratio                     : 16:9
  17. Frame rate mode                          : Constant
  18. Frame rate                               : 24.000 FPS
  19. Color space                              : YUV
  20. Chroma subsampling                       : 4:2:0
  21. Bit depth                                : 8 bits
  22. Scan type                                : Progressive
  23. Bits/(Pixel*Frame)                       : 0.667
  24. Stream size                              : 21.1 GiB (90%)
  25. Title                                    : The.Stolen.Princess.2018.1080p.BluRay.REMUX.AVC.DTS-HD.MA.5.1-FGT
  26. Language                                 : English
  27. Default                                  : No
  28. Forced                                   : No
  29. Audio
  30. ID                                       : 2
  31. Format                                   : DTS XLL
  32. Format/Info                              : Digital Theater Systems
  33. Commercial name                          : DTS-HD Master Audio
  34. Codec ID                                 : A_DTS
  35. Duration                                 : 1 h 30 min
  36. Bit rate mode                            : Variable
  37. Bit rate                                 : 3 751 kb/s
  38. Channel(s)                               : 6 channels
  39. Channel layout                           : C L R Ls Rs LFE
  40. Sampling rate                            : 48.0 kHz
  41. Frame rate                               : 93.750 FPS (512 SPF)
  42. Bit depth                                : 24 bits
  43. Compression mode                         : Lossless
  44. Stream size                              : 2.38 GiB (10%)
  45. Title                                    : The.Stolen.Princess.2018.1080p.BluRay.REMUX.AVC.DTS-HD.MA.5.1-FGT
  46. Language                                 : English
  47. Default                                  : Yes
  48. Forced                                   : No
  49. Text
  50. ID                                       : 3
  51. Format                                   : PGS
  52. Muxing mode                              : zlib
  53. Codec ID                                 : S_HDMV/PGS
  54. Codec ID/Info                            : Picture based subtitle format used on BDs/HD-DVDs
  55. Duration                                 : 1 h 25 min
  56. Bit rate                                 : 44.6 kb/s
  57. Count of elements                        : 3094
  58. Stream size                              : 27.3 MiB (0%)
  59. Title                                    : English-PGS
  60. Language                                 : English
  61. Default                                  : Yes
  62. Forced                                   : No
  63. Menu
  64. 00:00:00.000                             : en:Chapter 01
  65. 00:11:29.875                             : en:Chapter 02
  66. 00:23:15.458                             : en:Chapter 03
  67. 00:36:36.791                             : en:Chapter 04
  68. 00:51:35.750                             : en:Chapter 05
  69. 01:00:42.375                             : en:Chapter 06
  70. 01:09:26.625                             : en:Chapter 07
  71. 01:20:36.791                             : en:Chapter 08
复制代码






                                       
                                       

                                       
                                       
                                       




回复

使用道具 举报

懒得打字嘛,点击右侧快捷回复 【右侧内容,后台自定义】
您需要登录后才可以回帖 登录 | 立即加入

本版积分规则

Archiver|小黑屋| 蓝光电影网 |网站地图

Copyright © 2021 Comsenz Inc. Powered by 蓝光电影网

蓝光电影网

本站内容由用户自主分享和转载自互联网,转载目的在于传递更多信息,并不代表本网赞同其观点和对其真实性负责。

如有侵权、违反国家法律政策行为,请联系我们,我们会第一时间及时清除和处理!

举报反馈邮箱:[email protected]

快速回复 返回顶部 返回列表