找回密码

蓝光电影网

查看: 10|回复: 0

[动作] 雷神2:黑暗世界 Thor.The.Dark.World.2013.REMASTERED.1080p.BluRay.x264.DTS-HD.MA.7.1-SWTYBLZ 17.47GB

[复制链接]
蓝光币
515
发表于 2019-8-11 03:08:01 | 显示全部楼层 |阅读模式
[img]https://img1.doubanio.com/view/photo/l_ratio_poster/public/p2156839164.jpg[img]
◎译  名 雷神2:黑暗天下 / Marvel's Thor: The Dark World / Thor 2 / 雷神2:黑暗国家 / 雷奇异侠2:黑暗天下(港) / 雷神托尔2 / 雷神索尔2:黑暗天下(台)
◎片  名 Thor: The Dark World
◎年  代 2013
◎产  地 美国
◎类  别 行动 / 奇异 / 冒险
◎语  言 英语
◎上映日期 2013-11-08(中国大陆/美国)
◎IMDb评分  6.9/10 from 548286 users
◎IMDb链接  http://www.imdb.com/title/tt1981115
◎豆瓣评分 7.4/10 from 252390 users
◎豆瓣链接 https://movie.douban.com/subject/6560058/
◎片  长 112分钟
◎导  演 阿兰·泰勒 Alan Taylor
◎编  剧 克里斯托弗·约斯特 Christopher Yost / 克里斯托弗·马库斯 Christopher Markus / 斯蒂芬·麦克菲利 Stephen McFeely / 唐·佩恩 Don Payne / 罗伯特·罗达特 Robert Rodat / 斯坦·李 Stan Lee / 拉里·利伯 Larry Lieber / 杰克·科比 Jack Kirby / 沃尔特·西蒙森 Walter Simonson
◎主  演 克里斯·海姆斯沃斯 Chris Hemsworth
       娜塔莉·波特曼 Natalie Portman
       汤姆·希德勒斯顿 Tom Hiddleston
       安东尼·霍普金斯 Anthony Hopkins
       克里斯托弗·埃克莱斯顿 Christopher Eccleston
       杰米·亚历山大 Jaimie Alexander
       扎克瑞·莱维 Zachary Levi
       雷·史蒂文森 Ray Stevenson
       浅野忠信 Tadanobu Asano
       伊德里斯·艾尔巴 Idris Elba
       蕾妮·罗素 Rene Russo
       阿德沃尔·阿吉纽依-艾格拜吉 Adewale Akinnuoye-Agbaje
       凯特·戴琳斯 Kat Dennings
       斯特兰·斯卡斯加德 Stellan Skarsg?rd
       艾丽丝·克里奇 Alice Krige
       克里夫·罗素 Clive Russell
       乔纳森·霍华德 Jonathan Howard
       克里斯·奥多德 Chris O'Dowd
       妲露拉·莱莉 Talulah Riley
       奥菲利亚·拉维邦德 Ophelia Lovibond
       本尼西奥·德尔·托罗 Benicio Del Toro
       斯坦·李 Stan Lee

◎标  签 美国 | 科幻 | Marvel | 漫画改编 | 漫威 | 行动 | 超级豪杰 | 2013
◎简  介  
  纽约大战后,雷神索尔(克里斯·海姆斯沃斯 Chris Hemsworth 饰)将弟弟洛基(汤姆·希德勒斯顿 Tom Hiddleston 饰)带回仙宫软禁起来,此外帮助九大国家安定纷争,威名扶摇直上。虽然父王奥丁(安东尼·霍普金斯 Anthony Hopkins 饰)劝其尽早即位,但索尔记忆犹新地球的美丽女孩简·福斯特(娜塔丽·波特曼 Natalie Portman 饰)。与此同时,简在和黛西及其助手伊安观察某个地区时意外被奥秘物资入侵,却也是以重逢索尔,并随其返回仙宫。使人意想不到的是,藏在简体内的物资来自太古的黑暗精灵玛勒基斯(克里斯托弗·埃克莱斯顿 Christopher Eccleston 饰)。在“天体味聚”的时辰再次到来之际,玛勒基斯诡计摧毁九大国家,缔造一个全然黑暗的宇宙。
  藏匿简的仙宫遭到重创,而索尔和洛基这对朋友兄弟也不能不联手迎战宿命的强敌……
◎获奖情况  
  第23届MTV电影奖(2014)
  MTV电影奖 最好赤膊表演(提名) 克里斯·海姆斯沃斯
  MTV电影奖 最好豪杰形象(提名) 克里斯·海姆斯沃斯
  第16届美国青少年挑选奖(2014)
  最好科幻/奇异电影(提名)
  最好科幻/奇异电影男演员(提名) 克里斯·海姆斯沃斯
  最好科幻/奇异电影女演员(提名) 娜塔莉·波特曼
  第4届豆瓣电影鑫像奖(2014)
  鑫豆单元 最好科幻/行动片(提名)
  豆渣单元 最渣女演员(外语)(提名) 娜塔莉·波特曼
  1. Video
  2. ID                                       : 1
  3. Format                                   : AVC
  4. Format/Info                              : Advanced Video Codec
  5. Format profile                           : [email protected]
  6. Format settings                          : CABAC / 5 Ref Frames
  7. Format settings, CABAC                   : Yes
  8. Format settings, Reference frames        : 5 frames
  9. Codec ID                                 : V_MPEG4/ISO/AVC
  10. Duration                                 : 1 h 52 min
  11. Bit rate                                 : 18.0 Mb/s
  12. Width                                    : 1 920 pixels
  13. Height                                   : 800 pixels
  14. Display aspect ratio                     : 2.40:1
  15. Frame rate mode                          : Constant
  16. Frame rate                               : 23.976 (24000/1001) FPS
  17. Color space                              : YUV
  18. Chroma subsampling                       : 4:2:0
  19. Bit depth                                : 8 bits
  20. Scan type                                : Progressive
  21. Bits/(Pixel*Frame)                       : 0.490
  22. Stream size                              : 14.1 GiB (81%)
  23. Title                                    : Thor.The.Dark.World.2013.REMASTERED.1080p.BluRay.x264.DTS-HD.MA.7.1-SWTYBLZ
  24. Writing library                          : x264 core 157 r2935 545de2f
  25. Encoding settings                        : cabac=1 / ref=5 / deblock=1:-1:-1 / analyse=0x3:0x133 / me=umh / subme=10 / psy=1 / psy_rd=1.00:0.15 / mixed_ref=1 / me_range=48 / chroma_me=1 / trellis=2 / 8x8dct=1 / cqm=0 / deadzone=21,11 / fast_pskip=1 / chroma_qp_offset=-3 / threads=25 / lookahead_threads=4 / sliced_threads=0 / nr=0 / decimate=0 / interlaced=0 / bluray_compat=0 / constrained_intra=0 / bframes=8 / b_pyramid=2 / b_adapt=2 / b_bias=0 / direct=3 / weightb=1 / open_gop=0 / weightp=2 / keyint=250 / keyint_min=23 / scenecut=40 / intra_refresh=0 / rc_lookahead=60 / rc=crf / mbtree=1 / crf=11.0 / qcomp=0.60 / qpmin=0 / qpmax=69 / qpstep=4 / ip_ratio=1.40 / aq=1:1.00
  26. Default                                  : Yes
  27. Forced                                   : No
  28. Audio
  29. ID                                       : 2
  30. Format                                   : DTS XLL
  31. Format/Info                              : Digital Theater Systems
  32. Commercial name                          : DTS-HD Master Audio
  33. Codec ID                                 : A_DTS
  34. Duration                                 : 1 h 52 min
  35. Bit rate mode                            : Variable
  36. Bit rate                                 : 4 185 kb/s
  37. Channel(s)                               : 8 channels
  38. Channel layout                           : C L R LFE Lb Rb Lss Rss
  39. Sampling rate                            : 48.0 kHz
  40. Frame rate                               : 93.750 FPS (512 SPF)
  41. Bit depth                                : 24 bits
  42. Compression mode                         : Lossless
  43. Stream size                              : 3.28 GiB (19%)
  44. Title                                    : Thor.The.Dark.World.2013.REMASTERED.1080p.BluRay.x264.DTS-HD.MA.7.1-SWTYBLZ
  45. Language                                 : English
  46. Default                                  : No
  47. Forced                                   : No
  48. Text #1
  49. ID                                       : 3
  50. Format                                   : UTF-8
  51. Codec ID                                 : S_TEXT/UTF8
  52. Codec ID/Info                            : UTF-8 Plain Text
  53. Duration                                 : 1 h 13 min
  54. Bit rate                                 : 1 b/s
  55. Count of elements                        : 30
  56. Stream size                              : 995 Bytes (0%)
  57. Title                                    : English-FORCED-SRT
  58. Language                                 : English
  59. Default                                  : Yes
  60. Forced                                   : Yes
  61. Text #2
  62. ID                                       : 4
  63. Format                                   : UTF-8
  64. Codec ID                                 : S_TEXT/UTF8
  65. Codec ID/Info                            : UTF-8 Plain Text
  66. Duration                                 : 1 h 45 min
  67. Bit rate                                 : 41 b/s
  68. Count of elements                        : 1103
  69. Stream size                              : 31.6 KiB (0%)
  70. Title                                    : English-SRT
  71. Language                                 : English
  72. Default                                  : No
  73. Forced                                   : No
  74. Text #3
  75. ID                                       : 5
  76. Format                                   : PGS
  77. Muxing mode                              : zlib
  78. Codec ID                                 : S_HDMV/PGS
  79. Codec ID/Info                            : Picture based subtitle format used on BDs/HD-DVDs
  80. Duration                                 : 1 h 13 min
  81. Bit rate                                 : 562 b/s
  82. Count of elements                        : 56
  83. Stream size                              : 305 KiB (0%)
  84. Title                                    : English-FORCED-PGS
  85. Language                                 : English
  86. Default                                  : No
  87. Forced                                   : No
  88. Text #4
  89. ID                                       : 6
  90. Format                                   : PGS
  91. Muxing mode                              : zlib
  92. Codec ID                                 : S_HDMV/PGS
  93. Codec ID/Info                            : Picture based subtitle format used on BDs/HD-DVDs
  94. Duration                                 : 1 h 51 min
  95. Bit rate                                 : 34.1 kb/s
  96. Count of elements                        : 2757
  97. Stream size                              : 27.1 MiB (0%)
  98. Title                                    : English-PGS
  99. Language                                 : English
  100. Default                                  : No
  101. Forced                                   : No
  102. Text #5
  103. ID                                       : 7
  104. Format                                   : PGS
  105. Muxing mode                              : zlib
  106. Codec ID                                 : S_HDMV/PGS
  107. Codec ID/Info                            : Picture based subtitle format used on BDs/HD-DVDs
  108. Duration                                 : 1 h 51 min
  109. Bit rate                                 : 28.8 kb/s
  110. Count of elements                        : 2222
  111. Stream size                              : 23.0 MiB (0%)
  112. Title                                    : French-PGS
  113. Language                                 : French
  114. Default                                  : No
  115. Forced                                   : No
  116. Text #6
  117. ID                                       : 8
  118. Format                                   : PGS
  119. Muxing mode                              : zlib
  120. Codec ID                                 : S_HDMV/PGS
  121. Codec ID/Info                            : Picture based subtitle format used on BDs/HD-DVDs
  122. Duration                                 : 1 h 51 min
  123. Bit rate                                 : 23.9 kb/s
  124. Count of elements                        : 2124
  125. Stream size                              : 19.1 MiB (0%)
  126. Title                                    : French-PGS
  127. Language                                 : French
  128. Default                                  : No
  129. Forced                                   : No
  130. Text #7
  131. ID                                       : 9
  132. Format                                   : PGS
  133. Muxing mode                              : zlib
  134. Codec ID                                 : S_HDMV/PGS
  135. Codec ID/Info                            : Picture based subtitle format used on BDs/HD-DVDs
  136. Duration                                 : 1 h 45 min
  137. Bit rate                                 : 27.6 kb/s
  138. Count of elements                        : 2020
  139. Stream size                              : 20.7 MiB (0%)
  140. Title                                    : German-PGS
  141. Language                                 : German
  142. Default                                  : No
  143. Forced                                   : No
  144. Text #8
  145. ID                                       : 10
  146. Format                                   : PGS
  147. Muxing mode                              : zlib
  148. Codec ID                                 : S_HDMV/PGS
  149. Codec ID/Info                            : Picture based subtitle format used on BDs/HD-DVDs
  150. Duration                                 : 1 h 51 min
  151. Bit rate                                 : 29.2 kb/s
  152. Count of elements                        : 2164
  153. Stream size                              : 23.3 MiB (0%)
  154. Title                                    : Italian-PGS
  155. Language                                 : Italian
  156. Default                                  : No
  157. Forced                                   : No
  158. Text #9
  159. ID                                       : 11
  160. Format                                   : PGS
  161. Muxing mode                              : zlib
  162. Codec ID                                 : S_HDMV/PGS
  163. Codec ID/Info                            : Picture based subtitle format used on BDs/HD-DVDs
  164. Duration                                 : 1 h 51 min
  165. Bit rate                                 : 15.9 kb/s
  166. Count of elements                        : 1934
  167. Stream size                              : 12.6 MiB (0%)
  168. Title                                    : Japanese-PGS
  169. Language                                 : Japanese
  170. Default                                  : No
  171. Forced                                   : No
  172. Text #10
  173. ID                                       : 12
  174. Format                                   : PGS
  175. Muxing mode                              : zlib
  176. Codec ID                                 : S_HDMV/PGS
  177. Codec ID/Info                            : Picture based subtitle format used on BDs/HD-DVDs
  178. Duration                                 : 1 h 51 min
  179. Bit rate                                 : 26.7 kb/s
  180. Count of elements                        : 2156
  181. Stream size                              : 21.3 MiB (0%)
  182. Title                                    : Norwegian-PGS
  183. Language                                 : Norwegian
  184. Default                                  : No
  185. Forced                                   : No
  186. Text #11
  187. ID                                       : 13
  188. Format                                   : PGS
  189. Muxing mode                              : zlib
  190. Codec ID                                 : S_HDMV/PGS
  191. Codec ID/Info                            : Picture based subtitle format used on BDs/HD-DVDs
  192. Duration                                 : 1 h 51 min
  193. Bit rate                                 : 28.5 kb/s
  194. Count of elements                        : 2164
  195. Stream size                              : 22.7 MiB (0%)
  196. Title                                    : Spanish-PGS
  197. Language                                 : Spanish
  198. Default                                  : No
  199. Forced                                   : No
  200. Text #12
  201. ID                                       : 14
  202. Format                                   : PGS
  203. Muxing mode                              : zlib
  204. Codec ID                                 : S_HDMV/PGS
  205. Codec ID/Info                            : Picture based subtitle format used on BDs/HD-DVDs
  206. Duration                                 : 1 h 51 min
  207. Bit rate                                 : 24.2 kb/s
  208. Count of elements                        : 1412
  209. Stream size                              : 19.3 MiB (0%)
  210. Title                                    : Swedish-PGS
  211. Language                                 : Swedish
  212. Default                                  : No
  213. Forced                                   : No
  214. Menu
  215. 00:00:00.000                             : en:Chapter 01
  216. 00:06:13.664                             : en:Chapter 02
  217. 00:13:05.201                             : en:Chapter 03
  218. 00:18:40.994                             : en:Chapter 04
  219. 00:24:56.703                             : en:Chapter 05
  220. 00:29:07.495                             : en:Chapter 06
  221. 00:41:33.365                             : en:Chapter 07
  222. 00:49:40.227                             : en:Chapter 08
  223. 00:55:56.144                             : en:Chapter 09
  224. 01:00:08.855                             : en:Chapter 10
  225. 01:08:12.671                             : en:Chapter 11
  226. 01:12:39.897                             : en:Chapter 12
  227. 01:21:34.180                             : en:Chapter 13
  228. 01:26:22.093                             : en:Chapter 14
  229. 01:33:58.799                             : en:Chapter 15
  230. 01:38:31.363                             : en:Chapter 16
  231. 01:41:49.228                             : en:Chapter 17
复制代码






                                       
                                       

                                       
                                       
                                       




回复

使用道具 举报

懒得打字嘛,点击右侧快捷回复 【右侧内容,后台自定义】
您需要登录后才可以回帖 登录 | 立即加入

本版积分规则

Archiver|小黑屋| 蓝光电影网 |网站地图

Copyright © 2021 Comsenz Inc. Powered by 蓝光电影网

蓝光电影网

本站内容由用户自主分享和转载自互联网,转载目的在于传递更多信息,并不代表本网赞同其观点和对其真实性负责。

如有侵权、违反国家法律政策行为,请联系我们,我们会第一时间及时清除和处理!

举报反馈邮箱:[email protected]

快速回复 返回顶部 返回列表