找回密码

蓝光电影网

查看: 16|回复: 0

[剧情] 不可能的事/冰天奇迹 Breakthrough.2019.1080p.BluRay.REMUX.AVC.DTS-HD.MA.7.1-FGT 29.87GB

[复制链接]
蓝光币
515
发表于 2019-7-20 23:10:34 | 显示全部楼层 |阅读模式


◎译  名 不成能的事 / 冰天奇迹 / 奇迹的冲破(港)
◎片  名 Breakthrough
◎年  代 2019
◎产  地 美国
◎类  别 剧情 / 列传
◎语  言 英语
◎上映日期 2019-04-17(美国)
◎IMDb评分  5.6/10 from 2606 users
◎IMDb链接  http://www.imdb.com/title/tt7083526
◎豆瓣评分 5.5/10 from 65 users
◎豆瓣链接 https://movie.douban.com/subject/30135924/
◎片  长 116分钟
◎导  演 罗斯安·道森 Roxann Dawson
◎编  剧 格兰特·尼波特 Grant Nieporte / 霍伊塞·史姑娘 Joyce Smith
◎主  演 克丽丝·梅斯 Chrissy Metz
      托弗·戈瑞斯 Topher Grace
      乔什·卢卡斯 Josh Lucas
      马塞尔·鲁伊斯 Marcel Ruiz
      丹尼斯·海斯伯特 Dennis Haysbert
      丽贝卡·斯塔巴 Rebecca Staab
      山姆·特拉梅尔 Sam Trammell
      麦克·柯尔特 Mike Colter
      艾丽·斯考比 Ali Skovbye

◎标  签 美国 | 2019 | 剧情 | 信仰 | 爱 | 奇迹 | 亲情 | 二十世纪福克斯
◎简  介  
  克丽丝·梅斯(《我们这一天》《美国可骇故事》)将主演新片《不成能的事》(The Impossible),Fox 2000建造。基于Joyce Smith所著自传《The Impossible: The Miraculous Story of a Mother’s Faith and Her Child’s Resurrection》,报告一个分歧平常的实在故事:Joyce14岁的儿子John在某个冬季掉进了密苏里州的一条冰河里,被宣布灭亡,经过Joyce的祈祷和信仰,1个小时后,John的心脏再次跳动了起来,16天今后,John不靠外力走出了医院,完全康复了。
罗斯安·道森(《美国谍梦》《纸牌屋》)执导,Grant Nieporte(《七磅》)改编剧本,3月温尼伯开拍。
  1. Video
  2. ID                                       : 1
  3. Format                                   : AVC
  4. Format/Info                              : Advanced Video Codec
  5. Format profile                           : [email protected]
  6. Format settings                          : CABAC / 4 Ref Frames
  7. Format settings, CABAC                   : Yes
  8. Format settings, Reference frames        : 4 frames
  9. Codec ID                                 : V_MPEG4/ISO/AVC
  10. Duration                                 : 1 h 56 min
  11. Bit rate mode                            : Variable
  12. Bit rate                                 : 27.2 Mb/s
  13. Maximum bit rate                         : 30.0 Mb/s
  14. Width                                    : 1 920 pixels
  15. Height                                   : 1 080 pixels
  16. Display aspect ratio                     : 16:9
  17. Frame rate mode                          : Constant
  18. Frame rate                               : 23.976 (24000/1001) FPS
  19. Color space                              : YUV
  20. Chroma subsampling                       : 4:2:0
  21. Bit depth                                : 8 bits
  22. Scan type                                : Progressive
  23. Bits/(Pixel*Frame)                       : 0.547
  24. Stream size                              : 22.1 GiB (74%)
  25. Title                                    : Breakthrough.2019.1080p.BluRay.REMUX.AVC.DTS-HD.MA.7.1-FGT
  26. Language                                 : English
  27. Default                                  : No
  28. Forced                                   : No
  29. Audio #1
  30. ID                                       : 2
  31. Format                                   : DTS XLL
  32. Format/Info                              : Digital Theater Systems
  33. Commercial name                          : DTS-HD Master Audio
  34. Codec ID                                 : A_DTS
  35. Duration                                 : 1 h 56 min
  36. Bit rate mode                            : Variable
  37. Bit rate                                 : 4 633 kb/s
  38. Channel(s)                               : 8 channels
  39. Channel layout                           : C L R LFE Lb Rb Lss Rss
  40. Sampling rate                            : 48.0 kHz
  41. Frame rate                               : 93.750 FPS (512 SPF)
  42. Bit depth                                : 24 bits
  43. Compression mode                         : Lossless
  44. Stream size                              : 3.76 GiB (13%)
  45. Title                                    : Breakthrough.2019.1080p.BluRay.REMUX.AVC.DTS-HD.MA.7.1-FGT
  46. Language                                 : English
  47. Default                                  : Yes
  48. Forced                                   : No
  49. Audio #2
  50. ID                                       : 3
  51. Format                                   : AC-3
  52. Format/Info                              : Audio Coding 3
  53. Commercial name                          : Dolby Digital
  54. Codec ID                                 : A_AC3
  55. Duration                                 : 1 h 56 min
  56. Bit rate mode                            : Constant
  57. Bit rate                                 : 448 kb/s
  58. Channel(s)                               : 6 channels
  59. Channel layout                           : L R C LFE Ls Rs
  60. Sampling rate                            : 48.0 kHz
  61. Frame rate                               : 31.250 FPS (1536 SPF)
  62. Bit depth                                : 16 bits
  63. Compression mode                         : Lossy
  64. Stream size                              : 373 MiB (1%)
  65. Title                                    : Breakthrough.2019.1080p.BluRay.REMUX.AVC.DTS-HD.MA.7.1-FGT
  66. Language                                 : Spanish
  67. Service kind                             : Complete Main
  68. Default                                  : No
  69. Forced                                   : No
  70. Audio #3
  71. ID                                       : 4
  72. Format                                   : AC-3
  73. Format/Info                              : Audio Coding 3
  74. Commercial name                          : Dolby Digital
  75. Codec ID                                 : A_AC3
  76. Duration                                 : 1 h 56 min
  77. Bit rate mode                            : Constant
  78. Bit rate                                 : 448 kb/s
  79. Channel(s)                               : 6 channels
  80. Channel layout                           : L R C LFE Ls Rs
  81. Sampling rate                            : 48.0 kHz
  82. Frame rate                               : 31.250 FPS (1536 SPF)
  83. Bit depth                                : 16 bits
  84. Compression mode                         : Lossy
  85. Stream size                              : 373 MiB (1%)
  86. Title                                    : Breakthrough.2019.1080p.BluRay.REMUX.AVC.DTS-HD.MA.7.1-FGT
  87. Language                                 : Portuguese
  88. Service kind                             : Complete Main
  89. Default                                  : No
  90. Forced                                   : No
  91. Audio #4
  92. ID                                       : 5
  93. Format                                   : AC-3
  94. Format/Info                              : Audio Coding 3
  95. Commercial name                          : Dolby Digital
  96. Codec ID                                 : A_AC3
  97. Duration                                 : 1 h 56 min
  98. Bit rate mode                            : Constant
  99. Bit rate                                 : 448 kb/s
  100. Channel(s)                               : 6 channels
  101. Channel layout                           : L R C LFE Ls Rs
  102. Sampling rate                            : 48.0 kHz
  103. Frame rate                               : 31.250 FPS (1536 SPF)
  104. Bit depth                                : 16 bits
  105. Compression mode                         : Lossy
  106. Stream size                              : 373 MiB (1%)
  107. Title                                    : Breakthrough.2019.1080p.BluRay.REMUX.AVC.DTS-HD.MA.7.1-FGT
  108. Language                                 : Czech
  109. Service kind                             : Complete Main
  110. Default                                  : No
  111. Forced                                   : No
  112. Audio #5
  113. ID                                       : 6
  114. Format                                   : AC-3
  115. Format/Info                              : Audio Coding 3
  116. Commercial name                          : Dolby Digital
  117. Codec ID                                 : A_AC3
  118. Duration                                 : 1 h 56 min
  119. Bit rate mode                            : Constant
  120. Bit rate                                 : 448 kb/s
  121. Channel(s)                               : 6 channels
  122. Channel layout                           : L R C LFE Ls Rs
  123. Sampling rate                            : 48.0 kHz
  124. Frame rate                               : 31.250 FPS (1536 SPF)
  125. Bit depth                                : 16 bits
  126. Compression mode                         : Lossy
  127. Stream size                              : 373 MiB (1%)
  128. Title                                    : Breakthrough.2019.1080p.BluRay.REMUX.AVC.DTS-HD.MA.7.1-FGT
  129. Language                                 : Hindi
  130. Service kind                             : Complete Main
  131. Default                                  : No
  132. Forced                                   : No
  133. Audio #6
  134. ID                                       : 7
  135. Format                                   : AC-3
  136. Format/Info                              : Audio Coding 3
  137. Commercial name                          : Dolby Digital
  138. Codec ID                                 : A_AC3
  139. Duration                                 : 1 h 56 min
  140. Bit rate mode                            : Constant
  141. Bit rate                                 : 448 kb/s
  142. Channel(s)                               : 6 channels
  143. Channel layout                           : L R C LFE Ls Rs
  144. Sampling rate                            : 48.0 kHz
  145. Frame rate                               : 31.250 FPS (1536 SPF)
  146. Bit depth                                : 16 bits
  147. Compression mode                         : Lossy
  148. Stream size                              : 373 MiB (1%)
  149. Title                                    : Breakthrough.2019.1080p.BluRay.REMUX.AVC.DTS-HD.MA.7.1-FGT
  150. Language                                 : Urdu
  151. Service kind                             : Complete Main
  152. Default                                  : No
  153. Forced                                   : No
  154. Audio #7
  155. ID                                       : 8
  156. Format                                   : AC-3
  157. Format/Info                              : Audio Coding 3
  158. Commercial name                          : Dolby Digital
  159. Codec ID                                 : A_AC3
  160. Duration                                 : 1 h 56 min
  161. Bit rate mode                            : Constant
  162. Bit rate                                 : 448 kb/s
  163. Channel(s)                               : 6 channels
  164. Channel layout                           : L R C LFE Ls Rs
  165. Sampling rate                            : 48.0 kHz
  166. Frame rate                               : 31.250 FPS (1536 SPF)
  167. Bit depth                                : 16 bits
  168. Compression mode                         : Lossy
  169. Stream size                              : 373 MiB (1%)
  170. Title                                    : Breakthrough.2019.1080p.BluRay.REMUX.AVC.DTS-HD.MA.7.1-FGT
  171. Language                                 : Hungarian
  172. Service kind                             : Complete Main
  173. Default                                  : No
  174. Forced                                   : No
  175. Audio #8
  176. ID                                       : 9
  177. Format                                   : AC-3
  178. Format/Info                              : Audio Coding 3
  179. Commercial name                          : Dolby Digital
  180. Codec ID                                 : A_AC3
  181. Duration                                 : 1 h 56 min
  182. Bit rate mode                            : Constant
  183. Bit rate                                 : 448 kb/s
  184. Channel(s)                               : 6 channels
  185. Channel layout                           : L R C LFE Ls Rs
  186. Sampling rate                            : 48.0 kHz
  187. Frame rate                               : 31.250 FPS (1536 SPF)
  188. Bit depth                                : 16 bits
  189. Compression mode                         : Lossy
  190. Stream size                              : 373 MiB (1%)
  191. Title                                    : Breakthrough.2019.1080p.BluRay.REMUX.AVC.DTS-HD.MA.7.1-FGT
  192. Language                                 : Polish
  193. Service kind                             : Complete Main
  194. Default                                  : No
  195. Forced                                   : No
  196. Audio #9
  197. ID                                       : 10
  198. Format                                   : AC-3
  199. Format/Info                              : Audio Coding 3
  200. Commercial name                          : Dolby Digital
  201. Codec ID                                 : A_AC3
  202. Duration                                 : 1 h 56 min
  203. Bit rate mode                            : Constant
  204. Bit rate                                 : 448 kb/s
  205. Channel(s)                               : 6 channels
  206. Channel layout                           : L R C LFE Ls Rs
  207. Sampling rate                            : 48.0 kHz
  208. Frame rate                               : 31.250 FPS (1536 SPF)
  209. Bit depth                                : 16 bits
  210. Compression mode                         : Lossy
  211. Stream size                              : 373 MiB (1%)
  212. Title                                    : Breakthrough.2019.1080p.BluRay.REMUX.AVC.DTS-HD.MA.7.1-FGT
  213. Language                                 : Thai
  214. Service kind                             : Complete Main
  215. Default                                  : No
  216. Forced                                   : No
  217. Audio #10
  218. ID                                       : 11
  219. Format                                   : AC-3
  220. Format/Info                              : Audio Coding 3
  221. Commercial name                          : Dolby Digital
  222. Codec ID                                 : A_AC3
  223. Duration                                 : 1 h 56 min
  224. Bit rate mode                            : Constant
  225. Bit rate                                 : 448 kb/s
  226. Channel(s)                               : 6 channels
  227. Channel layout                           : L R C LFE Ls Rs
  228. Sampling rate                            : 48.0 kHz
  229. Frame rate                               : 31.250 FPS (1536 SPF)
  230. Bit depth                                : 16 bits
  231. Compression mode                         : Lossy
  232. Stream size                              : 373 MiB (1%)
  233. Title                                    : Breakthrough.2019.1080p.BluRay.REMUX.AVC.DTS-HD.MA.7.1-FGT
  234. Language                                 : Turkish
  235. Service kind                             : Complete Main
  236. Default                                  : No
  237. Forced                                   : No
  238. Audio #11
  239. ID                                       : 12
  240. Format                                   : AC-3
  241. Format/Info                              : Audio Coding 3
  242. Commercial name                          : Dolby Digital
  243. Codec ID                                 : A_AC3
  244. Duration                                 : 1 h 56 min
  245. Bit rate mode                            : Constant
  246. Bit rate                                 : 224 kb/s
  247. Channel(s)                               : 2 channels
  248. Channel layout                           : L R
  249. Sampling rate                            : 48.0 kHz
  250. Frame rate                               : 31.250 FPS (1536 SPF)
  251. Bit depth                                : 16 bits
  252. Compression mode                         : Lossy
  253. Stream size                              : 186 MiB (1%)
  254. Title                                    : Breakthrough.2019.1080p.BluRay.REMUX.AVC.DTS-HD.MA.7.1-FGT
  255. Language                                 : English
  256. Service kind                             : Complete Main
  257. Default                                  : No
  258. Forced                                   : No
  259. Text #1
  260. ID                                       : 13
  261. Format                                   : UTF-8
  262. Codec ID                                 : S_TEXT/UTF8
  263. Codec ID/Info                            : UTF-8 Plain Text
  264. Duration                                 : 1 h 54 min
  265. Bit rate                                 : 68 b/s
  266. Count of elements                        : 2069
  267. Stream size                              : 57.1 KiB (0%)
  268. Title                                    : English-SRT
  269. Language                                 : English
  270. Default                                  : Yes
  271. Forced                                   : No
  272. Text #2
  273. ID                                       : 14
  274. Format                                   : PGS
  275. Muxing mode                              : zlib
  276. Codec ID                                 : S_HDMV/PGS
  277. Codec ID/Info                            : Picture based subtitle format used on BDs/HD-DVDs
  278. Duration                                 : 1 h 54 min
  279. Bit rate                                 : 74.3 kb/s
  280. Count of elements                        : 4138
  281. Stream size                              : 60.9 MiB (0%)
  282. Title                                    : English-PGS
  283. Language                                 : English
  284. Default                                  : No
  285. Forced                                   : No
  286. Text #3
  287. ID                                       : 15
  288. Format                                   : PGS
  289. Muxing mode                              : zlib
  290. Codec ID                                 : S_HDMV/PGS
  291. Codec ID/Info                            : Picture based subtitle format used on BDs/HD-DVDs
  292. Duration                                 : 1 h 55 min
  293. Bit rate                                 : 58.2 kb/s
  294. Count of elements                        : 3334
  295. Stream size                              : 48.0 MiB (0%)
  296. Title                                    : Spanish-PGS
  297. Language                                 : Spanish
  298. Default                                  : No
  299. Forced                                   : No
  300. Text #4
  301. ID                                       : 16
  302. Format                                   : PGS
  303. Muxing mode                              : zlib
  304. Codec ID                                 : S_HDMV/PGS
  305. Codec ID/Info                            : Picture based subtitle format used on BDs/HD-DVDs
  306. Duration                                 : 1 h 55 min
  307. Bit rate                                 : 4 409 b/s
  308. Count of elements                        : 218
  309. Stream size                              : 3.64 MiB (0%)
  310. Title                                    : Spanish-PGS
  311. Language                                 : Spanish
  312. Default                                  : No
  313. Forced                                   : No
  314. Text #5
  315. ID                                       : 17
  316. Format                                   : PGS
  317. Muxing mode                              : zlib
  318. Codec ID                                 : S_HDMV/PGS
  319. Codec ID/Info                            : Picture based subtitle format used on BDs/HD-DVDs
  320. Duration                                 : 1 h 55 min
  321. Bit rate                                 : 36.0 kb/s
  322. Count of elements                        : 3380
  323. Stream size                              : 29.7 MiB (0%)
  324. Title                                    : Arabic-PGS
  325. Language                                 : Arabic
  326. Default                                  : No
  327. Forced                                   : No
  328. Text #6
  329. ID                                       : 18
  330. Format                                   : PGS
  331. Muxing mode                              : zlib
  332. Codec ID                                 : S_HDMV/PGS
  333. Codec ID/Info                            : Picture based subtitle format used on BDs/HD-DVDs
  334. Duration                                 : 1 h 55 min
  335. Bit rate                                 : 53.0 kb/s
  336. Count of elements                        : 3328
  337. Stream size                              : 43.7 MiB (0%)
  338. Title                                    : Bulgarian-PGS
  339. Language                                 : Bulgarian
  340. Default                                  : No
  341. Forced                                   : No
  342. Text #7
  343. ID                                       : 19
  344. Format                                   : PGS
  345. Muxing mode                              : zlib
  346. Codec ID                                 : S_HDMV/PGS
  347. Codec ID/Info                            : Picture based subtitle format used on BDs/HD-DVDs
  348. Duration                                 : 1 h 55 min
  349. Bit rate                                 : 42.1 kb/s
  350. Count of elements                        : 3378
  351. Stream size                              : 34.7 MiB (0%)
  352. Title                                    : Chinese-PGS
  353. Language                                 : Chinese
  354. Default                                  : No
  355. Forced                                   : No
  356. Text #8
  357. ID                                       : 20
  358. Format                                   : PGS
  359. Muxing mode                              : zlib
  360. Codec ID                                 : S_HDMV/PGS
  361. Codec ID/Info                            : Picture based subtitle format used on BDs/HD-DVDs
  362. Duration                                 : 1 h 55 min
  363. Bit rate                                 : 51.9 kb/s
  364. Count of elements                        : 3382
  365. Stream size                              : 42.8 MiB (0%)
  366. Title                                    : Croatian-PGS
  367. Language                                 : Croatian
  368. Default                                  : No
  369. Forced                                   : No
  370. Text #9
  371. ID                                       : 21
  372. Format                                   : PGS
  373. Muxing mode                              : zlib
  374. Codec ID                                 : S_HDMV/PGS
  375. Codec ID/Info                            : Picture based subtitle format used on BDs/HD-DVDs
  376. Duration                                 : 1 h 55 min
  377. Bit rate                                 : 57.3 kb/s
  378. Count of elements                        : 2772
  379. Stream size                              : 47.3 MiB (0%)
  380. Title                                    : Greek-PGS
  381. Language                                 : Greek
  382. Default                                  : No
  383. Forced                                   : No
  384. Text #10
  385. ID                                       : 22
  386. Format                                   : PGS
  387. Muxing mode                              : zlib
  388. Codec ID                                 : S_HDMV/PGS
  389. Codec ID/Info                            : Picture based subtitle format used on BDs/HD-DVDs
  390. Duration                                 : 1 h 55 min
  391. Bit rate                                 : 40.4 kb/s
  392. Count of elements                        : 3292
  393. Stream size                              : 33.3 MiB (0%)
  394. Title                                    : Hebrew-PGS
  395. Language                                 : Hebrew
  396. Default                                  : No
  397. Forced                                   : No
  398. Text #11
  399. ID                                       : 23
  400. Format                                   : PGS
  401. Muxing mode                              : zlib
  402. Codec ID                                 : S_HDMV/PGS
  403. Codec ID/Info                            : Picture based subtitle format used on BDs/HD-DVDs
  404. Duration                                 : 1 h 55 min
  405. Bit rate                                 : 57.4 kb/s
  406. Count of elements                        : 3386
  407. Stream size                              : 47.4 MiB (0%)
  408. Title                                    : Hungarian-PGS
  409. Language                                 : Hungarian
  410. Default                                  : No
  411. Forced                                   : No
  412. Text #12
  413. ID                                       : 24
  414. Format                                   : PGS
  415. Muxing mode                              : zlib
  416. Codec ID                                 : S_HDMV/PGS
  417. Codec ID/Info                            : Picture based subtitle format used on BDs/HD-DVDs
  418. Duration                                 : 1 h 39 min
  419. Bit rate                                 : 3 208 b/s
  420. Count of elements                        : 158
  421. Stream size                              : 2.28 MiB (0%)
  422. Title                                    : Hungarian-FORCED-PGS
  423. Language                                 : Hungarian
  424. Default                                  : No
  425. Forced                                   : No
  426. Text #13
  427. ID                                       : 25
  428. Format                                   : PGS
  429. Muxing mode                              : zlib
  430. Codec ID                                 : S_HDMV/PGS
  431. Codec ID/Info                            : Picture based subtitle format used on BDs/HD-DVDs
  432. Duration                                 : 1 h 55 min
  433. Bit rate                                 : 51.5 kb/s
  434. Count of elements                        : 2774
  435. Stream size                              : 42.5 MiB (0%)
  436. Title                                    : Icelandic-PGS
  437. Language                                 : Icelandic
  438. Default                                  : No
  439. Forced                                   : No
  440. Text #14
  441. ID                                       : 26
  442. Format                                   : PGS
  443. Muxing mode                              : zlib
  444. Codec ID                                 : S_HDMV/PGS
  445. Codec ID/Info                            : Picture based subtitle format used on BDs/HD-DVDs
  446. Duration                                 : 1 h 55 min
  447. Bit rate                                 : 63.2 kb/s
  448. Count of elements                        : 3226
  449. Stream size                              : 52.1 MiB (0%)
  450. Title                                    : Malay-PGS
  451. Language                                 : Malay
  452. Default                                  : No
  453. Forced                                   : No
  454. Text #15
  455. ID                                       : 27
  456. Format                                   : PGS
  457. Muxing mode                              : zlib
  458. Codec ID                                 : S_HDMV/PGS
  459. Codec ID/Info                            : Picture based subtitle format used on BDs/HD-DVDs
  460. Duration                                 : 1 h 55 min
  461. Bit rate                                 : 43.6 kb/s
  462. Count of elements                        : 3360
  463. Stream size                              : 36.0 MiB (0%)
  464. Title                                    : Chinese-PGS
  465. Language                                 : Chinese
  466. Default                                  : No
  467. Forced                                   : No
  468. Text #16
  469. ID                                       : 28
  470. Format                                   : PGS
  471. Muxing mode                              : zlib
  472. Codec ID                                 : S_HDMV/PGS
  473. Codec ID/Info                            : Picture based subtitle format used on BDs/HD-DVDs
  474. Duration                                 : 1 h 55 min
  475. Bit rate                                 : 43.4 kb/s
  476. Count of elements                        : 2692
  477. Stream size                              : 35.8 MiB (0%)
  478. Title                                    : Polish-PGS
  479. Language                                 : Polish
  480. Default                                  : No
  481. Forced                                   : No
  482. Text #17
  483. ID                                       : 29
  484. Format                                   : PGS
  485. Muxing mode                              : zlib
  486. Codec ID                                 : S_HDMV/PGS
  487. Codec ID/Info                            : Picture based subtitle format used on BDs/HD-DVDs
  488. Duration                                 : 1 h 28 min
  489. Bit rate                                 : 122 b/s
  490. Count of elements                        : 6
  491. Stream size                              : 79.1 KiB (0%)
  492. Title                                    : Polish-FORCED-PGS
  493. Language                                 : Polish
  494. Default                                  : No
  495. Forced                                   : No
  496. Text #18
  497. ID                                       : 30
  498. Format                                   : PGS
  499. Muxing mode                              : zlib
  500. Codec ID                                 : S_HDMV/PGS
  501. Codec ID/Info                            : Picture based subtitle format used on BDs/HD-DVDs
  502. Duration                                 : 1 h 55 min
  503. Bit rate                                 : 63.0 kb/s
  504. Count of elements                        : 3350
  505. Stream size                              : 51.9 MiB (0%)
  506. Title                                    : Portuguese-PGS
  507. Language                                 : Portuguese
  508. Default                                  : No
  509. Forced                                   : No
  510. Text #19
  511. ID                                       : 31
  512. Format                                   : PGS
  513. Muxing mode                              : zlib
  514. Codec ID                                 : S_HDMV/PGS
  515. Codec ID/Info                            : Picture based subtitle format used on BDs/HD-DVDs
  516. Duration                                 : 1 h 55 min
  517. Bit rate                                 : 55.7 kb/s
  518. Count of elements                        : 3362
  519. Stream size                              : 45.9 MiB (0%)
  520. Title                                    : Romanian-PGS
  521. Language                                 : Romanian
  522. Default                                  : No
  523. Forced                                   : No
  524. Text #20
  525. ID                                       : 32
  526. Format                                   : PGS
  527. Muxing mode                              : zlib
  528. Codec ID                                 : S_HDMV/PGS
  529. Codec ID/Info                            : Picture based subtitle format used on BDs/HD-DVDs
  530. Duration                                 : 1 h 55 min
  531. Bit rate                                 : 4 308 b/s
  532. Count of elements                        : 214
  533. Stream size                              : 3.55 MiB (0%)
  534. Title                                    : Romanian-FORCED-PGS
  535. Language                                 : Romanian
  536. Default                                  : No
  537. Forced                                   : No
  538. Text #21
  539. ID                                       : 33
  540. Format                                   : PGS
  541. Muxing mode                              : zlib
  542. Codec ID                                 : S_HDMV/PGS
  543. Codec ID/Info                            : Picture based subtitle format used on BDs/HD-DVDs
  544. Duration                                 : 1 h 55 min
  545. Bit rate                                 : 50.4 kb/s
  546. Count of elements                        : 3228
  547. Stream size                              : 41.5 MiB (0%)
  548. Title                                    : Serbian-PGS
  549. Language                                 : Serbian
  550. Default                                  : No
  551. Forced                                   : No
  552. Text #22
  553. ID                                       : 34
  554. Format                                   : PGS
  555. Muxing mode                              : zlib
  556. Codec ID                                 : S_HDMV/PGS
  557. Codec ID/Info                            : Picture based subtitle format used on BDs/HD-DVDs
  558. Duration                                 : 1 h 55 min
  559. Bit rate                                 : 44.3 kb/s
  560. Count of elements                        : 3216
  561. Stream size                              : 36.6 MiB (0%)
  562. Title                                    : Slovak-PGS
  563. Language                                 : Slovak
  564. Default                                  : No
  565. Forced                                   : No
  566. Text #23
  567. ID                                       : 35
  568. Format                                   : PGS
  569. Muxing mode                              : zlib
  570. Codec ID                                 : S_HDMV/PGS
  571. Codec ID/Info                            : Picture based subtitle format used on BDs/HD-DVDs
  572. Duration                                 : 1 h 55 min
  573. Bit rate                                 : 50.5 kb/s
  574. Count of elements                        : 2662
  575. Stream size                              : 41.6 MiB (0%)
  576. Title                                    : Slovenian-PGS
  577. Language                                 : Slovenian
  578. Default                                  : No
  579. Forced                                   : No
  580. Text #24
  581. ID                                       : 36
  582. Format                                   : PGS
  583. Muxing mode                              : zlib
  584. Codec ID                                 : S_HDMV/PGS
  585. Codec ID/Info                            : Picture based subtitle format used on BDs/HD-DVDs
  586. Duration                                 : 1 h 55 min
  587. Bit rate                                 : 50.6 kb/s
  588. Count of elements                        : 3382
  589. Stream size                              : 41.7 MiB (0%)
  590. Title                                    : Thai-PGS
  591. Language                                 : Thai
  592. Default                                  : No
  593. Forced                                   : No
  594. Text #25
  595. ID                                       : 37
  596. Format                                   : PGS
  597. Muxing mode                              : zlib
  598. Codec ID                                 : S_HDMV/PGS
  599. Codec ID/Info                            : Picture based subtitle format used on BDs/HD-DVDs
  600. Duration                                 : 1 h 55 min
  601. Bit rate                                 : 3 797 b/s
  602. Count of elements                        : 216
  603. Stream size                              : 3.13 MiB (0%)
  604. Title                                    : Thai-FORCED-PGS
  605. Language                                 : Thai
  606. Default                                  : No
  607. Forced                                   : No
  608. Text #26
  609. ID                                       : 38
  610. Format                                   : PGS
  611. Muxing mode                              : zlib
  612. Codec ID                                 : S_HDMV/PGS
  613. Codec ID/Info                            : Picture based subtitle format used on BDs/HD-DVDs
  614. Duration                                 : 1 h 55 min
  615. Bit rate                                 : 57.4 kb/s
  616. Count of elements                        : 3370
  617. Stream size                              : 47.4 MiB (0%)
  618. Title                                    : Turkish-PGS
  619. Language                                 : Turkish
  620. Default                                  : No
  621. Forced                                   : No
  622. Text #27
  623. ID                                       : 39
  624. Format                                   : PGS
  625. Muxing mode                              : zlib
  626. Codec ID                                 : S_HDMV/PGS
  627. Codec ID/Info                            : Picture based subtitle format used on BDs/HD-DVDs
  628. Duration                                 : 1 h 55 min
  629. Bit rate                                 : 4 141 b/s
  630. Count of elements                        : 208
  631. Stream size                              : 3.42 MiB (0%)
  632. Title                                    : Turkish-FORCED-PGS
  633. Language                                 : Turkish
  634. Default                                  : No
  635. Forced                                   : No
  636. Text #28
  637. ID                                       : 40
  638. Format                                   : PGS
  639. Muxing mode                              : zlib
  640. Codec ID                                 : S_HDMV/PGS
  641. Codec ID/Info                            : Picture based subtitle format used on BDs/HD-DVDs
  642. Duration                                 : 1 h 55 min
  643. Bit rate                                 : 55.4 kb/s
  644. Count of elements                        : 3316
  645. Stream size                              : 45.7 MiB (0%)
  646. Title                                    : Portuguese-PGS
  647. Language                                 : Portuguese
  648. Default                                  : No
  649. Forced                                   : No
  650. Text #29
  651. ID                                       : 41
  652. Format                                   : PGS
  653. Muxing mode                              : zlib
  654. Codec ID                                 : S_HDMV/PGS
  655. Codec ID/Info                            : Picture based subtitle format used on BDs/HD-DVDs
  656. Duration                                 : 1 h 39 min
  657. Bit rate                                 : 3 726 b/s
  658. Count of elements                        : 154
  659. Stream size                              : 2.64 MiB (0%)
  660. Title                                    : Portuguese-FORCED-PGS
  661. Language                                 : Portuguese
  662. Default                                  : No
  663. Forced                                   : No
  664. Text #30
  665. ID                                       : 42
  666. Format                                   : PGS
  667. Muxing mode                              : zlib
  668. Codec ID                                 : S_HDMV/PGS
  669. Codec ID/Info                            : Picture based subtitle format used on BDs/HD-DVDs
  670. Duration                                 : 1 h 55 min
  671. Bit rate                                 : 53.2 kb/s
  672. Count of elements                        : 3380
  673. Stream size                              : 43.8 MiB (0%)
  674. Title                                    : Hindi-PGS
  675. Language                                 : Hindi
  676. Default                                  : No
  677. Forced                                   : No
  678. Text #31
  679. ID                                       : 43
  680. Format                                   : PGS
  681. Muxing mode                              : zlib
  682. Codec ID                                 : S_HDMV/PGS
  683. Codec ID/Info                            : Picture based subtitle format used on BDs/HD-DVDs
  684. Duration                                 : 1 h 55 min
  685. Bit rate                                 : 3 763 b/s
  686. Count of elements                        : 218
  687. Stream size                              : 3.10 MiB (0%)
  688. Title                                    : Hindi-FORCED-PGS
  689. Language                                 : Hindi
  690. Default                                  : No
  691. Forced                                   : No
  692. Text #32
  693. ID                                       : 44
  694. Format                                   : PGS
  695. Muxing mode                              : zlib
  696. Codec ID                                 : S_HDMV/PGS
  697. Codec ID/Info                            : Picture based subtitle format used on BDs/HD-DVDs
  698. Duration                                 : 1 h 55 min
  699. Bit rate                                 : 47.3 kb/s
  700. Count of elements                        : 3370
  701. Stream size                              : 39.0 MiB (0%)
  702. Title                                    : Korean-PGS
  703. Language                                 : Korean
  704. Default                                  : No
  705. Forced                                   : No
  706. Text #33
  707. ID                                       : 45
  708. Format                                   : PGS
  709. Muxing mode                              : zlib
  710. Codec ID                                 : S_HDMV/PGS
  711. Codec ID/Info                            : Picture based subtitle format used on BDs/HD-DVDs
  712. Duration                                 : 1 h 56 min
  713. Bit rate                                 : 81.4 kb/s
  714. Count of elements                        : 4066
  715. Stream size                              : 67.7 MiB (0%)
  716. Title                                    : Korean-FORCED-PGS
  717. Language                                 : Korean
  718. Default                                  : No
  719. Forced                                   : No
  720. Text #34
  721. ID                                       : 46
  722. Format                                   : PGS
  723. Muxing mode                              : zlib
  724. Codec ID                                 : S_HDMV/PGS
  725. Codec ID/Info                            : Picture based subtitle format used on BDs/HD-DVDs
  726. Duration                                 : 1 h 55 min
  727. Bit rate                                 : 53.7 kb/s
  728. Count of elements                        : 3224
  729. Stream size                              : 44.3 MiB (0%)
  730. Title                                    : Czech-PGS
  731. Language                                 : Czech
  732. Default                                  : No
  733. Forced                                   : No
  734. Text #35
  735. ID                                       : 47
  736. Format                                   : PGS
  737. Muxing mode                              : zlib
  738. Codec ID                                 : S_HDMV/PGS
  739. Codec ID/Info                            : Picture based subtitle format used on BDs/HD-DVDs
  740. Duration                                 : 1 h 31 min
  741. Bit rate                                 : 528 b/s
  742. Count of elements                        : 18
  743. Stream size                              : 356 KiB (0%)
  744. Title                                    : Czech-FORCED-PGS
  745. Language                                 : Czech
  746. Default                                  : No
  747. Forced                                   : No
  748. Menu
  749. 00:00:00.000                             : en:Chapter 01
  750. 00:04:29.519                             : en:Chapter 02
  751. 00:08:12.533                             : en:Chapter 03
  752. 00:15:41.440                             : en:Chapter 04
  753. 00:22:07.367                             : en:Chapter 05
  754. 00:24:59.915                             : en:Chapter 06
  755. 00:30:03.635                             : en:Chapter 07
  756. 00:35:26.415                             : en:Chapter 08
  757. 00:40:45.401                             : en:Chapter 09
  758. 00:45:39.361                             : en:Chapter 10
  759. 00:49:40.978                             : en:Chapter 11
  760. 00:55:18.356                             : en:Chapter 12
  761. 00:59:48.626                             : en:Chapter 13
  762. 01:04:34.745                             : en:Chapter 14
  763. 01:08:44.286                             : en:Chapter 15
  764. 01:12:40.105                             : en:Chapter 16
  765. 01:18:37.045                             : en:Chapter 17
  766. 01:26:36.316                             : en:Chapter 18
  767. 01:31:12.925                             : en:Chapter 19
  768. 01:37:36.934                             : en:Chapter 20
  769. 01:41:48.644                             : en:Chapter 21
  770. 01:45:39.291                             : en:Chapter 22
  771. 01:48:00.849                             : en:Chapter 23
  772. 01:51:55.917                             : en:Chapter 24
复制代码






                                       
                                       

                                       
                                       
                                       




回复

使用道具 举报

懒得打字嘛,点击右侧快捷回复 【右侧内容,后台自定义】
您需要登录后才可以回帖 登录 | 立即加入

本版积分规则

Archiver|小黑屋| 蓝光电影网 |网站地图

Copyright © 2021 Comsenz Inc. Powered by 蓝光电影网

蓝光电影网

本站内容由用户自主分享和转载自互联网,转载目的在于传递更多信息,并不代表本网赞同其观点和对其真实性负责。

如有侵权、违反国家法律政策行为,请联系我们,我们会第一时间及时清除和处理!

举报反馈邮箱:[email protected]

快速回复 返回顶部 返回列表