找回密码

蓝光电影网

查看: 9|回复: 0

[其他] 修女 The.Nun.2018.1080p.BluRay.x264.TrueHD.7.1.Atmos-FGT 9.20GB

[复制链接]
蓝光币
509
发表于 2020-9-24 10:34:11 | 显示全部楼层 |阅读模式


◎译  名 修女/Valak/招魂外传/诡修女(港)/鬼修女(台)
◎片  名 The Nun
◎年  代 2018
◎产  地 美国
◎类  别 悬疑 / 惊悚 / 可骇
◎语  言 英语,法语,罗马尼亚语,拉丁语
◎上映日期 2018-09-07(美国)
◎IMDb评分  5.3/10 from 113368 users
◎IMDb链接  https://www.imdb.com/title/tt5814060/
◎豆瓣评分 5.9/10 from 42701 users
◎豆瓣链接 https://movie.douban.com/subject/26825664/
◎片  长 96分钟
◎导  演 科林·哈迪 Corin Hardy
◎编  剧 加里·多伯曼 Gary Dauberman / 温子仁 James Wan
◎主  演 德米安·比齐尔 Demián Bichir
       泰莎·法米加 Taissa Farmiga
       乔纳斯·布洛凯 Jonas Bloquet
       邦妮·阿伦斯 Bonnie Aarons
       维拉·法米加 Vera Farmiga
       帕特里克·威尔森 Patrick Wilson
       英格丽·比苏 Ingrid Bisu
       夏洛特·霍普 Charlotte Hope
       桑德拉·特蕾丝 Sandra Teles
       奥古斯特·马图洛 August Maturo
       迈克尔·史麦利 Michael Smiley
       大卫·霍罗维奇 David Horovitch
       丽丽·博尔丹 Lili Bordán
       斯嘉丽·希克斯 Scarlett Hicks
       丽兹·科菲 Izzie Coffey
       迪·布拉雷·贝克尔 Dee Bradley Baker
       黛布拉·威尔逊 Debra Wilson
       马克·斯达格 Mark Steger
       莉迪亚·科洛科 Lidiya Korotko
       艾玛·阿普尔顿 Emma Appleton
       约翰尼·科瓦内 Jonny Coyne
       丹尼尔·曼德尔 Daniel Mandehr
       西蒙·瑞 Simon Rhee
       桑德拉·罗斯科 Sandra Rosko
       林奈特·加莎 Lynnette Gaza
       阿尼·萨瓦 Ani Sava
       都铎·蒙特亚努 Tudor Munteanu
       安娜·乌德鲁伊 Ana Udroiu
◎标  签 可骇 | 惊悚 | 温子仁 | 美国 | 招魂外传 | 灵异 | 招魂宇宙 | 2018
◎简  介


  远在罗马尼亚乡下的一所修道院发生修女自杀事务。为此,梵蒂冈委派伯克神父(德米安·比齐尔 Demián Bichir 饰)和见习修女艾琳(泰莎·法米加 Taissa Farmiga 饰)前往观察。到达目标地后,他们首先找到了定期给该修道院输送物资的法国青年弗兰切(乔纳斯·布洛凯 Jonas Bloquet 饰),而他正是第一个发现修女尸身的目击人。三人进入修道院,里面的氛围阴森鬼魅,修女们则飘忽不定,有如鬼魂。看不碰头容的修道院长称修女们正在寂静祈祷,第二天赋能回答他们的题目。无法之下,伯克神父一行只好临时在修道院落脚。
  
  可是随着夜幕来临,实在的可骇起头显现,恶魔对虔敬的信仰展开了毫无差此外狙杀……
  1. Video
  2. ID                                       : 1
  3. Format                                   : AVC
  4. Format/Info                              : Advanced Video Codec
  5. Format profile                           : [email protected]
  6. Format settings                          : CABAC / 5 Ref Frames
  7. Format settings, CABAC                   : Yes
  8. Format settings, Reference frames        : 5 frames
  9. Codec ID                                 : V_MPEG4/ISO/AVC
  10. Duration                                 : 1 h 36 min
  11. Bit rate                                 : 9 833 kb/s
  12. Width                                    : 1 920 pixels
  13. Height                                   : 800 pixels
  14. Display aspect ratio                     : 2.40:1
  15. Frame rate mode                          : Constant
  16. Frame rate                               : 23.976 FPS
  17. Color space                              : YUV
  18. Chroma subsampling                       : 4:2:0
  19. Bit depth                                : 8 bits
  20. Scan type                                : Progressive
  21. Bits/(Pixel*Frame)                       : 0.267
  22. Stream size                              : 6.63 GiB (72%)
  23. Title                                    : The.Nun.2018.1080p.BluRay.x264.TrueHD.7.1.Atmos-FGT
  24. Writing library                          : x264 core 157 r2935 545de2f
  25. Encoding settings                        : cabac=1 / ref=5 / deblock=1:0:0 / analyse=0x3:0x133 / me=umh / subme=7 / psy=1 / psy_rd=1.00:0.00 / mixed_ref=1 / me_range=16 / chroma_me=1 / trellis=1 / 8x8dct=1 / cqm=0 / deadzone=21,11 / fast_pskip=0 / chroma_qp_offset=-2 / threads=25 / lookahead_threads=4 / sliced_threads=0 / nr=0 / decimate=1 / interlaced=0 / bluray_compat=0 / constrained_intra=0 / bframes=3 / b_pyramid=2 / b_adapt=1 / b_bias=0 / direct=1 / weightb=1 / open_gop=0 / weightp=2 / keyint=250 / keyint_min=23 / scenecut=40 / intra_refresh=0 / rc_lookahead=40 / rc=2pass / mbtree=1 / bitrate=9833 / ratetol=1.0 / qcomp=0.60 / qpmin=0 / qpmax=69 / qpstep=4 / cplxblur=20.0 / qblur=0.5 / ip_ratio=1.40 / aq=1:1.00
  26. Language                                 : English
  27. Default                                  : Yes
  28. Forced                                   : No

  29. Audio #1
  30. ID                                       : 2
  31. Format                                   : MLP FBA 16-ch
  32. Format/Info                              : Meridian Lossless Packing FBA with 16-channel presentation
  33. Commercial name                          : Dolby TrueHD with Dolby Atmos
  34. Codec ID                                 : A_TRUEHD
  35. Duration                                 : 1 h 36 min
  36. Bit rate mode                            : Variable
  37. Bit rate                                 : 3 272 kb/s
  38. Maximum bit rate                         : 5 742 kb/s
  39. Channel(s)                               : 8 channels
  40. Channel layout                           : L R C LFE Ls Rs Lb Rb
  41. Sampling rate                            : 48.0 kHz
  42. Frame rate                               : 1 200.000 FPS (40 SPF)
  43. Compression mode                         : Lossless
  44. Stream size                              : 2.21 GiB (24%)
  45. Title                                    : The.Nun.2018.1080p.BluRay.x264.TrueHD.7.1.Atmos-FGT
  46. Language                                 : English
  47. Default                                  : Yes
  48. Forced                                   : No
  49. Number of dynamic objects                : 11
  50. Bed channel count                        : 1 channel
  51. Bed channel configuration                : LFE

  52. Audio #2
  53. ID                                       : 3
  54. Format                                   : AC-3
  55. Format/Info                              : Audio Coding 3
  56. Commercial name                          : Dolby Digital
  57. Codec ID                                 : A_AC3
  58. Duration                                 : 1 h 36 min
  59. Bit rate mode                            : Constant
  60. Bit rate                                 : 448 kb/s
  61. Channel(s)                               : 6 channels
  62. Channel layout                           : L R C LFE Ls Rs
  63. Sampling rate                            : 48.0 kHz
  64. Frame rate                               : 31.250 FPS (1536 SPF)
  65. Compression mode                         : Lossy
  66. Stream size                              : 309 MiB (3%)
  67. Title                                    : The.Nun.2018.1080p.BluRay.x264.TrueHD.7.1.Atmos-FGT
  68. Language                                 : English
  69. Service kind                             : Complete Main
  70. Default                                  : No
  71. Forced                                   : No

  72. Text #1
  73. ID                                       : 4
  74. Format                                   : UTF-8
  75. Codec ID                                 : S_TEXT/UTF8
  76. Codec ID/Info                            : UTF-8 Plain Text
  77. Duration                                 : 1 h 30 min
  78. Bit rate                                 : 30 b/s
  79. Count of elements                        : 724
  80. Stream size                              : 20.4 KiB (0%)
  81. Title                                    : English-SRT
  82. Language                                 : English
  83. Default                                  : Yes
  84. Forced                                   : No

  85. Text #2
  86. ID                                       : 5
  87. Format                                   : PGS
  88. Muxing mode                              : zlib
  89. Codec ID                                 : S_HDMV/PGS
  90. Codec ID/Info                            : Picture based subtitle format used on BDs/HD-DVDs
  91. Duration                                 : 1 h 35 min
  92. Bit rate                                 : 25.5 kb/s
  93. Count of elements                        : 1885
  94. Stream size                              : 17.4 MiB (0%)
  95. Title                                    : English-PGS
  96. Language                                 : English
  97. Default                                  : No
  98. Forced                                   : No

  99. Text #3
  100. ID                                       : 6
  101. Format                                   : PGS
  102. Muxing mode                              : zlib
  103. Codec ID                                 : S_HDMV/PGS
  104. Codec ID/Info                            : Picture based subtitle format used on BDs/HD-DVDs
  105. Duration                                 : 1 h 35 min
  106. Bit rate                                 : 16.3 kb/s
  107. Count of elements                        : 1410
  108. Stream size                              : 11.1 MiB (0%)
  109. Title                                    : French-PGS
  110. Language                                 : French
  111. Default                                  : No
  112. Forced                                   : No

  113. Text #4
  114. ID                                       : 7
  115. Format                                   : PGS
  116. Muxing mode                              : zlib
  117. Codec ID                                 : S_HDMV/PGS
  118. Codec ID/Info                            : Picture based subtitle format used on BDs/HD-DVDs
  119. Duration                                 : 1 h 35 min
  120. Bit rate                                 : 18.2 kb/s
  121. Count of elements                        : 1274
  122. Stream size                              : 12.4 MiB (0%)
  123. Title                                    : Spanish-PGS
  124. Language                                 : Spanish
  125. Default                                  : No
  126. Forced                                   : No

  127. Text #5
  128. ID                                       : 8
  129. Format                                   : PGS
  130. Muxing mode                              : zlib
  131. Codec ID                                 : S_HDMV/PGS
  132. Codec ID/Info                            : Picture based subtitle format used on BDs/HD-DVDs
  133. Duration                                 : 1 h 35 min
  134. Bit rate                                 : 17.3 kb/s
  135. Count of elements                        : 1272
  136. Stream size                              : 11.8 MiB (0%)
  137. Title                                    : Portuguese-PGS
  138. Language                                 : Portuguese
  139. Default                                  : No
  140. Forced                                   : No

  141. Menu #1
  142. 00:00:00.000                             : en:Chapter 01
  143. 00:08:42.772                             : en:Chapter 02
  144. 00:17:55.074                             : en:Chapter 03
  145. 00:29:17.505                             : en:Chapter 04
  146. 00:38:05.032                             : en:Chapter 05
  147. 00:48:49.801                             : en:Chapter 06
  148. 00:58:49.192                             : en:Chapter 07
  149. 01:09:16.944                             : en:Chapter 08
  150. 01:18:14.564                             : en:Chapter 09
  151. 01:24:18.636                             : en:Chapter 10
  152. 01:32:30.294                             : en:Chapter 11

  153. Menu #2
  154. 00:00:00.000                             : en:00:00:00.000
  155. 00:08:42.772                             : en:00:08:42.772
  156. 00:17:55.074                             : en:00:17:55.074
  157. 00:29:17.506                             : en:00:29:17.506
  158. 00:38:05.033                             : en:00:38:05.033
  159. 00:48:49.802                             : en:00:48:49.802
  160. 00:58:49.192                             : en:00:58:49.192
  161. 01:09:16.944                             : en:01:09:16.944
  162. 01:18:14.565                             : en:01:18:14.565
  163. 01:24:18.637                             : en:01:24:18.637
  164. 01:32:30.295                             : en:01:32:30.295
复制代码





                                       
                                       

                                       
                                       
                                       




回复

使用道具 举报

懒得打字嘛,点击右侧快捷回复 【右侧内容,后台自定义】
您需要登录后才可以回帖 登录 | 立即加入

本版积分规则

Archiver|小黑屋| 蓝光电影网 |网站地图

Copyright © 2021 Comsenz Inc. Powered by 蓝光电影网

蓝光电影网

本站内容由用户自主分享和转载自互联网,转载目的在于传递更多信息,并不代表本网赞同其观点和对其真实性负责。

如有侵权、违反国家法律政策行为,请联系我们,我们会第一时间及时清除和处理!

举报反馈邮箱:[email protected]

快速回复 返回顶部 返回列表