找回密码

蓝光电影网

查看: 59|回复: 0

[动作] 蝙蝠侠:龙之魂/蝙蝠俠:龍的靈魂 Batman.Soul.of.the.Dragon.2021.1080p.BluRay.REMUX.AVC.DTS-HD.MA.5.1-FGT 10.32GB

[复制链接]
蓝光币
511
发表于 2021-2-1 15:21:22 | 显示全部楼层 |阅读模式


◎译  名 蝙蝠侠:龙之魂/蝙蝠俠:龍的靈魂
◎片  名 Batman: Soul of the Dragon
◎年  代 2021
◎产  地 美国
◎类  别 行动 / 动画 / 冒险
◎语  言 英语
◎上映日期 2021-01-12(美国收集)
◎IMDb评分  5.9/10 from 1630 users
◎IMDb链接  https://www.imdb.com/title/tt12885852/
◎豆瓣评分 5.9/10 from 786 users
◎豆瓣链接 https://movie.douban.com/subject/35181083/
◎片  长 83分钟
◎导  演 刘山姆 Sam Liu
◎编  剧 杰瑞米·亚当斯 Jeremy Adams
◎主  演 大卫·君图力 David Giuntoli
       马克·达卡斯考斯 Mark Dacascos
       胡凯莉 Kelly Hu
       迈克尔·加·怀特 Michael Jai White
       吴汉章 James Hong
       艾瑞克·鲍扎 Eric Bauza
       杰米·钟 Jamie Chung
       克里斯·考克斯 Chris Cox
       罗宾·阿特金·唐斯 Robin Atkin Downes
       格蕾·德丽斯勒 Grey DeLisle
       乔什·基顿 Josh Keaton
       艾丽卡·鲁特雷尔 Erica Luttrell
       帕特里克·赛兹 Patrick Seitz
◎标  签 DC | 动画 | 蝙蝠侠 | 美国 | 2021 | 漫画改编 | 犯罪 | 华纳
◎简  介


  上世纪70年月,一位失落的武术教员是他虔诚而聪明但间隔较远的门生(包括蝙蝠侠)寻觅的工具。
  1. Video
  2. ID                                       : 1
  3. ID in the original source medium         : 4113 (0x1011)
  4. Format                                   : AVC
  5. Format/Info                              : Advanced Video Codec
  6. Format profile                           : [email protected]
  7. Format settings                          : CABAC / 4 Ref Frames
  8. Format settings, CABAC                   : Yes
  9. Format settings, Reference frames        : 4 frames
  10. Codec ID                                 : V_MPEG4/ISO/AVC
  11. Duration                                 : 1 h 22 min
  12. Bit rate mode                            : Variable
  13. Bit rate                                 : 14.0 Mb/s
  14. Maximum bit rate                         : 39.0 Mb/s
  15. Width                                    : 1 920 pixels
  16. Height                                   : 1 080 pixels
  17. Display aspect ratio                     : 16:9
  18. Frame rate mode                          : Constant
  19. Frame rate                               : 23.976 (24000/1001/189150) FPS
  20. Color space                              : YUV
  21. Chroma subsampling                       : 4:2:0
  22. Bit depth                                : 8 bits
  23. Scan type                                : Progressive
  24. Bits/(Pixel*Frame)                       : 0.281
  25. Stream size                              : 8.06 GiB (78%)
  26. Language                                 : English
  27. Default                                  : No
  28. Forced                                   : No
  29. Original source medium                   : Blu-ray
  30. Audio #1
  31. ID                                       : 2
  32. ID in the original source medium         : 4352 (0x1100)
  33. Format                                   : DTS XLL
  34. Format/Info                              : Digital Theater Systems
  35. Commercial name                          : DTS-HD Master Audio
  36. Codec ID                                 : A_DTS
  37. Duration                                 : 1 h 22 min
  38. Bit rate mode                            : Variable
  39. Bit rate                                 : 2 374 kb/s
  40. Channel(s)                               : 6 channels
  41. Channel layout                           : C L R Ls Rs LFE
  42. Sampling rate                            : 48.0 kHz
  43. Frame rate                               : 93.750 FPS (512 SPF)
  44. Bit depth                                : 24 bits
  45. Compression mode                         : Lossless
  46. Stream size                              : 1.37 GiB (13%)
  47. Title                                    : DTS-HD MA 5.1
  48. Language                                 : English
  49. Default                                  : Yes
  50. Forced                                   : No
  51. Original source medium                   : Blu-ray
  52. Audio #2
  53. ID                                       : 3
  54. ID in the original source medium         : 4353 (0x1101)
  55. Format                                   : AC-3
  56. Format/Info                              : Audio Coding 3
  57. Commercial name                          : Dolby Digital
  58. Codec ID                                 : A_AC3
  59. Duration                                 : 1 h 22 min
  60. Bit rate mode                            : Constant
  61. Bit rate                                 : 640 kb/s
  62. Channel(s)                               : 6 channels
  63. Channel layout                           : L R C LFE Ls Rs
  64. Sampling rate                            : 48.0 kHz
  65. Frame rate                               : 31.250 FPS (1536 SPF)
  66. Compression mode                         : Lossy
  67. Stream size                              : 379 MiB (4%)
  68. Title                                    : DD 5.1
  69. Language                                 : French
  70. Service kind                             : Complete Main
  71. Default                                  : No
  72. Forced                                   : No
  73. Original source medium                   : Blu-ray
  74. Audio #3
  75. ID                                       : 4
  76. ID in the original source medium         : 4354 (0x1102)
  77. Format                                   : AC-3
  78. Format/Info                              : Audio Coding 3
  79. Commercial name                          : Dolby Digital
  80. Codec ID                                 : A_AC3
  81. Duration                                 : 1 h 22 min
  82. Bit rate mode                            : Constant
  83. Bit rate                                 : 640 kb/s
  84. Channel(s)                               : 6 channels
  85. Channel layout                           : L R C LFE Ls Rs
  86. Sampling rate                            : 48.0 kHz
  87. Frame rate                               : 31.250 FPS (1536 SPF)
  88. Compression mode                         : Lossy
  89. Stream size                              : 379 MiB (4%)
  90. Title                                    : DD 5.1
  91. Language                                 : German
  92. Service kind                             : Complete Main
  93. Default                                  : No
  94. Forced                                   : No
  95. Original source medium                   : Blu-ray
  96. Audio #4
  97. ID                                       : 5
  98. ID in the original source medium         : 4355 (0x1103)
  99. Format                                   : AC-3
  100. Format/Info                              : Audio Coding 3
  101. Commercial name                          : Dolby Digital
  102. Codec ID                                 : A_AC3
  103. Duration                                 : 1 h 22 min
  104. Bit rate mode                            : Constant
  105. Bit rate                                 : 192 kb/s
  106. Channel(s)                               : 2 channels
  107. Channel layout                           : L R
  108. Sampling rate                            : 48.0 kHz
  109. Frame rate                               : 31.250 FPS (1536 SPF)
  110. Compression mode                         : Lossy
  111. Stream size                              : 114 MiB (1%)
  112. Title                                    : DD 2.0
  113. Language                                 : Spanish
  114. Service kind                             : Complete Main
  115. Default                                  : No
  116. Forced                                   : No
  117. Original source medium                   : Blu-ray
  118. Text #1
  119. ID                                       : 6
  120. Format                                   : UTF-8
  121. Codec ID                                 : S_TEXT/UTF8
  122. Codec ID/Info                            : UTF-8 Plain Text
  123. Duration                                 : 1 h 19 min
  124. Bit rate                                 : 35 b/s
  125. Count of elements                        : 791
  126. Stream size                              : 20.6 KiB (0%)
  127. Title                                    : English-SRT
  128. Language                                 : English
  129. Default                                  : Yes
  130. Forced                                   : No
  131. Text #2
  132. ID                                       : 7
  133. ID in the original source medium         : 4608 (0x1200)
  134. Format                                   : PGS
  135. Muxing mode                              : zlib
  136. Codec ID                                 : S_HDMV/PGS
  137. Codec ID/Info                            : Picture based subtitle format used on BDs/HD-DVDs
  138. Duration                                 : 1 h 19 min
  139. Bit rate                                 : 25.0 kb/s
  140. Count of elements                        : 1892
  141. Stream size                              : 14.1 MiB (0%)
  142. Title                                    : English-PGS
  143. Language                                 : English
  144. Default                                  : No
  145. Forced                                   : No
  146. Original source medium                   : Blu-ray
  147. Text #3
  148. ID                                       : 8
  149. ID in the original source medium         : 4609 (0x1201)
  150. Format                                   : PGS
  151. Muxing mode                              : zlib
  152. Codec ID                                 : S_HDMV/PGS
  153. Codec ID/Info                            : Picture based subtitle format used on BDs/HD-DVDs
  154. Duration                                 : 1 h 21 min
  155. Bit rate                                 : 23.8 kb/s
  156. Count of elements                        : 1606
  157. Stream size                              : 13.9 MiB (0%)
  158. Title                                    : French-PGS
  159. Language                                 : French
  160. Default                                  : No
  161. Forced                                   : No
  162. Original source medium                   : Blu-ray
  163. Text #4
  164. ID                                       : 9
  165. ID in the original source medium         : 4610 (0x1202)
  166. Format                                   : PGS
  167. Muxing mode                              : zlib
  168. Codec ID                                 : S_HDMV/PGS
  169. Codec ID/Info                            : Picture based subtitle format used on BDs/HD-DVDs
  170. Duration                                 : 1 h 19 min
  171. Bit rate                                 : 29.3 kb/s
  172. Count of elements                        : 1892
  173. Stream size                              : 16.6 MiB (0%)
  174. Title                                    : German-PGS
  175. Language                                 : German
  176. Default                                  : No
  177. Forced                                   : No
  178. Original source medium                   : Blu-ray
  179. Text #5
  180. ID                                       : 10
  181. ID in the original source medium         : 4611 (0x1203)
  182. Format                                   : PGS
  183. Muxing mode                              : zlib
  184. Codec ID                                 : S_HDMV/PGS
  185. Codec ID/Info                            : Picture based subtitle format used on BDs/HD-DVDs
  186. Duration                                 : 1 h 21 min
  187. Bit rate                                 : 22.4 kb/s
  188. Count of elements                        : 1614
  189. Stream size                              : 13.1 MiB (0%)
  190. Title                                    : Spanish-PGS
  191. Language                                 : Spanish
  192. Default                                  : No
  193. Forced                                   : No
  194. Original source medium                   : Blu-ray
  195. Text #6
  196. ID                                       : 11
  197. ID in the original source medium         : 4612 (0x1204)
  198. Format                                   : PGS
  199. Muxing mode                              : zlib
  200. Codec ID                                 : S_HDMV/PGS
  201. Codec ID/Info                            : Picture based subtitle format used on BDs/HD-DVDs
  202. Duration                                 : 1 h 21 min
  203. Bit rate                                 : 22.4 kb/s
  204. Count of elements                        : 1602
  205. Stream size                              : 13.0 MiB (0%)
  206. Title                                    : Danish-PGS
  207. Language                                 : Danish
  208. Default                                  : No
  209. Forced                                   : No
  210. Original source medium                   : Blu-ray
  211. Text #7
  212. ID                                       : 12
  213. ID in the original source medium         : 4613 (0x1205)
  214. Format                                   : PGS
  215. Muxing mode                              : zlib
  216. Codec ID                                 : S_HDMV/PGS
  217. Codec ID/Info                            : Picture based subtitle format used on BDs/HD-DVDs
  218. Duration                                 : 1 h 21 min
  219. Bit rate                                 : 21.6 kb/s
  220. Count of elements                        : 1606
  221. Stream size                              : 12.6 MiB (0%)
  222. Title                                    : Finnish-PGS
  223. Language                                 : Finnish
  224. Default                                  : No
  225. Forced                                   : No
  226. Original source medium                   : Blu-ray
  227. Text #8
  228. ID                                       : 13
  229. ID in the original source medium         : 4614 (0x1206)
  230. Format                                   : PGS
  231. Muxing mode                              : zlib
  232. Codec ID                                 : S_HDMV/PGS
  233. Codec ID/Info                            : Picture based subtitle format used on BDs/HD-DVDs
  234. Duration                                 : 1 h 21 min
  235. Bit rate                                 : 21.5 kb/s
  236. Count of elements                        : 1604
  237. Stream size                              : 12.5 MiB (0%)
  238. Title                                    : Norwegian-PGS
  239. Language                                 : Norwegian
  240. Default                                  : No
  241. Forced                                   : No
  242. Original source medium                   : Blu-ray
  243. Text #9
  244. ID                                       : 14
  245. ID in the original source medium         : 4615 (0x1207)
  246. Format                                   : PGS
  247. Muxing mode                              : zlib
  248. Codec ID                                 : S_HDMV/PGS
  249. Codec ID/Info                            : Picture based subtitle format used on BDs/HD-DVDs
  250. Duration                                 : 1 h 21 min
  251. Bit rate                                 : 21.5 kb/s
  252. Count of elements                        : 1600
  253. Stream size                              : 12.6 MiB (0%)
  254. Title                                    : Swedish-PGS
  255. Language                                 : Swedish
  256. Default                                  : No
  257. Forced                                   : No
  258. Original source medium                   : Blu-ray
  259. Text #10
  260. ID                                       : 15
  261. ID in the original source medium         : 4616 (0x1208)
  262. Format                                   : PGS
  263. Muxing mode                              : zlib
  264. Codec ID                                 : S_HDMV/PGS
  265. Codec ID/Info                            : Picture based subtitle format used on BDs/HD-DVDs
  266. Duration                                 : 1 h 17 min
  267. Bit rate                                 : 387 b/s
  268. Count of elements                        : 22
  269. Stream size                              : 220 KiB (0%)
  270. Title                                    : French-FORCED-PGS
  271. Language                                 : French
  272. Default                                  : No
  273. Forced                                   : No
  274. Original source medium                   : Blu-ray
  275. Text #11
  276. ID                                       : 16
  277. ID in the original source medium         : 4617 (0x1209)
  278. Format                                   : PGS
  279. Muxing mode                              : zlib
  280. Codec ID                                 : S_HDMV/PGS
  281. Codec ID/Info                            : Picture based subtitle format used on BDs/HD-DVDs
  282. Duration                                 : 1 h 17 min
  283. Bit rate                                 : 202 b/s
  284. Count of elements                        : 14
  285. Stream size                              : 115 KiB (0%)
  286. Title                                    : Spanish-FORCED-PGS
  287. Language                                 : Spanish
  288. Default                                  : No
  289. Forced                                   : No
  290. Original source medium                   : Blu-ray
  291. Menu
  292. 00:00:00.000                             : en:Chapter 01
  293. 00:05:18.901                             : en:Chapter 02
  294. 00:12:03.222                             : en:Chapter 03
  295. 00:19:55.569                             : en:Chapter 04
  296. 00:26:51.735                             : en:Chapter 05
  297. 00:31:52.577                             : en:Chapter 06
  298. 00:38:59.587                             : en:Chapter 07
  299. 00:46:00.132                             : en:Chapter 08
  300. 00:52:09.334                             : en:Chapter 09
  301. 01:00:06.311                             : en:Chapter 10
  302. 01:08:15.674                             : en:Chapter 11
  303. 01:14:33.343                             : en:Chapter 12
  304. 01:20:04.382                             : en:Chapter 13
复制代码






                                       
                                       

                                       
                                       
                                       




回复

使用道具 举报

懒得打字嘛,点击右侧快捷回复 【右侧内容,后台自定义】
您需要登录后才可以回帖 登录 | 立即加入

本版积分规则

Archiver|小黑屋| 蓝光电影网 |网站地图

Copyright © 2021 Comsenz Inc. Powered by 蓝光电影网

蓝光电影网

本站内容由用户自主分享和转载自互联网,转载目的在于传递更多信息,并不代表本网赞同其观点和对其真实性负责。

如有侵权、违反国家法律政策行为,请联系我们,我们会第一时间及时清除和处理!

举报反馈邮箱:[email protected]

快速回复 返回顶部 返回列表