找回密码

蓝光电影网

查看: 21|回复: 0

[喜剧] 嘉年华大贼 The.Caper.of.the.Golden.Bulls.1967.1080p.BluRay.x264.DTS-FGT 9.65GB

[复制链接]
蓝光币
511
发表于 2020-11-25 08:42:04 | 显示全部楼层 |阅读模式


◎译  名 嘉韶华剧盗/Carvinal of Thieves
◎片  名 The Caper of the Golden Bulls
◎年  代 1967
◎产  地 美国
◎类  别 笑剧 / 行动
◎语  言 英语
◎上映日期 1967
◎IMDb评分  6.1/10 from 92 users
◎IMDb链接  https://www.imdb.com/title/tt0060209/
◎豆瓣评分 /10 from 0 users
◎豆瓣链接 https://movie.douban.com/subject/5057766/
◎片  长 102 分钟
◎导  演 拉塞尔·劳斯 Russell Rouse
◎编  剧 威廉·P·麦吉弗伦 William P. McGivern / 大卫·默辛格 David Moessinger / Ed Waters
◎主  演 史蒂芬·博伊德 Stephen Boyd
       伊薇特·米米亚克斯 Yvette Mimieux
       乔瓦娜·拉利 Giovanna Ralli
       维托·斯科蒂 Vito Scotti
       阿诺德·莫斯 Arnold Moss
       沃尔特·斯勒扎克 Walter Slezak
       克里夫顿·詹姆斯 Clifton James
       亨利·贝克曼 Henry Beckman
       Jay Novello
       Lomax Study
       Tom Toner
       Leon Askin
       Leon Charles
       J.G. Devlin
       诺厄·基恩 Noah Keen
◎标  签 记号
◎简  介


  暂无相关剧情先容
  1. Video
  2. ID                                       : 1
  3. Format                                   : AVC
  4. Format/Info                              : Advanced Video Codec
  5. Format profile                           : [email protected]
  6. Format settings                          : CABAC / 4 Ref Frames
  7. Format settings, CABAC                   : Yes
  8. Format settings, Reference frames        : 4 frames
  9. Codec ID                                 : V_MPEG4/ISO/AVC
  10. Duration                                 : 1 h 46 min
  11. Bit rate                                 : 11.5 Mb/s
  12. Width                                    : 1 920 pixels
  13. Height                                   : 1 036 pixels
  14. Display aspect ratio                     : 1.85:1
  15. Frame rate mode                          : Constant
  16. Frame rate                               : 23.976 (24000/1001/189150) FPS
  17. Color space                              : YUV
  18. Chroma subsampling                       : 4:2:0
  19. Bit depth                                : 8 bits
  20. Scan type                                : Progressive
  21. Bits/(Pixel*Frame)                       : 0.241
  22. Stream size                              : 8.53 GiB (88%)
  23. Title                                    : The.Caper.of.the.Golden.Bulls.1967.1080p.BluRay.x264.DTS-FGT
  24. Writing library                          : x264 core 148 r2748 97eaef2
  25. Encoding settings                        : cabac=1 / ref=4 / deblock=1:-2:-2 / analyse=0x3:0x113 / me=umh / subme=9 / psy=1 / psy_rd=1.00:0.15 / mixed_ref=1 / me_range=16 / chroma_me=1 / trellis=2 / 8x8dct=1 / cqm=0 / deadzone=21,11 / fast_pskip=1 / chroma_qp_offset=-3 / threads=24 / lookahead_threads=3 / sliced_threads=0 / nr=0 / decimate=1 / interlaced=0 / bluray_compat=0 / constrained_intra=0 / bframes=3 / b_pyramid=2 / b_adapt=1 / b_bias=0 / direct=3 / weightb=1 / open_gop=0 / weightp=2 / keyint=250 / keyint_min=25 / scenecut=40 / intra_refresh=0 / rc_lookahead=50 / rc=2pass / mbtree=1 / bitrate=11500 / ratetol=1.0 / qcomp=0.60 / qpmin=0 / qpmax=69 / qpstep=4 / cplxblur=20.0 / qblur=0.5 / vbv_maxrate=31250 / vbv_bufsize=31250 / nal_hrd=none / filler=0 / ip_ratio=1.40 / aq=1:1.00
  26. Language                                 : English
  27. Default                                  : Yes
  28. Forced                                   : No
  29. Audio
  30. ID                                       : 2
  31. ID in the original source medium         : 4352 (0x1100)
  32. Format                                   : DTS
  33. Format/Info                              : Digital Theater Systems
  34. Codec ID                                 : A_DTS
  35. Duration                                 : 1 h 46 min
  36. Bit rate mode                            : Constant
  37. Bit rate                                 : 1 509 kb/s
  38. Channel(s)                               : 2 channels
  39. Channel layout                           : L R
  40. Sampling rate                            : 48.0 kHz
  41. Frame rate                               : 93.750 FPS (512 SPF)
  42. Bit depth                                : 16 bits
  43. Compression mode                         : Lossy
  44. Stream size                              : 1.12 GiB (12%)
  45. Title                                    : The.Caper.of.the.Golden.Bulls.1967.1080p.BluRay.x264.DTS-FGT
  46. Language                                 : English
  47. Default                                  : No
  48. Forced                                   : No
  49. Original source medium                   : Blu-ray
  50. Text
  51. ID                                       : 3
  52. Format                                   : UTF-8
  53. Codec ID                                 : S_TEXT/UTF8
  54. Codec ID/Info                            : UTF-8 Plain Text
  55. Duration                                 : 1 h 44 min
  56. Bit rate                                 : 51 b/s
  57. Count of elements                        : 1375
  58. Stream size                              : 39.7 KiB (0%)
  59. Language                                 : English
  60. Default                                  : Yes
  61. Forced                                   : No
  62. Menu
  63. 00:00:00.000                             : en:Chapter 00
  64. 00:09:40.871                             : en:Chapter 01
  65. 00:24:10.949                             : en:Chapter 02
  66. 00:33:58.119                             : en:Chapter 03
  67. 00:48:35.913                             : en:Chapter 04
  68. 01:01:35.650                             : en:Chapter 05
  69. 01:13:52.177                             : en:Chapter 06
  70. 01:31:54.592                             : en:Chapter 07
复制代码





                                       
                                       

                                       
                                       
                                       




回复

使用道具 举报

懒得打字嘛,点击右侧快捷回复 【右侧内容,后台自定义】
您需要登录后才可以回帖 登录 | 立即加入

本版积分规则

Archiver|小黑屋| 蓝光电影网 |网站地图

Copyright © 2021 Comsenz Inc. Powered by 蓝光电影网

蓝光电影网

本站内容由用户自主分享和转载自互联网,转载目的在于传递更多信息,并不代表本网赞同其观点和对其真实性负责。

如有侵权、违反国家法律政策行为,请联系我们,我们会第一时间及时清除和处理!

举报反馈邮箱:[email protected]

快速回复 返回顶部 返回列表