找回密码

蓝光电影网

查看: 18|回复: 0

[剧情] JT·莱罗伊/JT·勒罗伊 JT.LeRoy.2018.1080p.BluRay.REMUX.AVC.DTS-HD.MA.5.1-FGT 23.90GB

[复制链接]
蓝光币
515
发表于 2019-7-20 13:17:26 | 显示全部楼层 |阅读模式


◎译  名 JT·莱罗伊 / JT·勒罗伊 / Jeremiah Terminator LeRoy
◎片  名 JT Leroy
◎年  代 2018
◎产  地 美国
◎类  别 剧情 / 列传
◎语  言 英语
◎上映日期 2018-09-10(多伦多电影节)
◎IMDb评分  5.4/10 from 491 users
◎IMDb链接  http://www.imdb.com/title/tt5460522
◎豆瓣评分 6.4/10 from 216 users
◎豆瓣链接 https://movie.douban.com/subject/26844189/
◎片  长 105分钟
◎导  演 贾斯汀·凯利 Justin Kelly
◎编  剧 贾斯汀·凯利 Justin Kelly
◎主  演 克里斯汀·斯图尔特 Kristen Stewart
      黛安·克鲁格 Diane Kruger
      劳拉·邓恩 Laura Dern
      吉姆·斯特吉斯 Jim Sturgess
      科特妮·洛芙 Courtney Love
      小凯文·哈里森 Kelvin Harrison Jr.
      詹姆斯·贾格尔 James Jagger
      艾丽西亚·约翰斯顿 Alicia Johnston
      大卫·劳伦斯·布朗 David Lawrence Brown
      Will Woytowich
      Craig Haas
      Jim Kirby
      Lorrie Papadopoulos
      Derek James Trapp

◎标  签 列传 | KristenStewart | 美国 | 女性 | 2018 | 美国电影 | 克里斯汀·斯图尔特 | 电影
◎简  介  
  故事改编自实在事务,报告1999年,一个名叫JT LeRoy的变性男人以作家身份走红,后被揭发这人的形象实在是捏造出来的:所谓他写的书,实在是一个叫Laura Albert(邓恩饰演)的女人写的,而他出现在公众眼前的形象,是一个叫Savannah Knoop的女人(斯图尔特饰演)饰演的。
  1. Video
  2. ID                                       : 1
  3. Format                                   : AVC
  4. Format/Info                              : Advanced Video Codec
  5. Format profile                           : [email protected]
  6. Format settings                          : CABAC / 4 Ref Frames
  7. Format settings, CABAC                   : Yes
  8. Format settings, Reference frames        : 4 frames
  9. Codec ID                                 : V_MPEG4/ISO/AVC
  10. Duration                                 : 1 h 48 min
  11. Bit rate mode                            : Variable
  12. Bit rate                                 : 29.7 Mb/s
  13. Maximum bit rate                         : 33.0 Mb/s
  14. Width                                    : 1 920 pixels
  15. Height                                   : 1 080 pixels
  16. Display aspect ratio                     : 16:9
  17. Frame rate mode                          : Constant
  18. Frame rate                               : 23.976 (24000/1001) FPS
  19. Color space                              : YUV
  20. Chroma subsampling                       : 4:2:0
  21. Bit depth                                : 8 bits
  22. Scan type                                : Progressive
  23. Bits/(Pixel*Frame)                       : 0.597
  24. Stream size                              : 22.5 GiB (94%)
  25. Title                                    : JT.LeRoy.2018.1080p.BluRay.REMUX.AVC.DTS-HD.MA.5.1-FGT
  26. Language                                 : English
  27. Default                                  : No
  28. Forced                                   : No
  29. Audio
  30. ID                                       : 2
  31. Format                                   : DTS XLL
  32. Format/Info                              : Digital Theater Systems
  33. Commercial name                          : DTS-HD Master Audio
  34. Codec ID                                 : A_DTS
  35. Duration                                 : 1 h 48 min
  36. Bit rate mode                            : Variable
  37. Bit rate                                 : 1 754 kb/s
  38. Channel(s)                               : 6 channels
  39. Channel layout                           : C L R Ls Rs LFE
  40. Sampling rate                            : 48.0 kHz
  41. Frame rate                               : 93.750 FPS (512 SPF)
  42. Bit depth                                : 16 bits
  43. Compression mode                         : Lossless
  44. Stream size                              : 1.33 GiB (6%)
  45. Title                                    : JT.LeRoy.2018.1080p.BluRay.REMUX.AVC.DTS-HD.MA.5.1-FGT
  46. Language                                 : English
  47. Default                                  : Yes
  48. Forced                                   : No
  49. Text #1
  50. ID                                       : 3
  51. Format                                   : PGS
  52. Muxing mode                              : zlib
  53. Codec ID                                 : S_HDMV/PGS
  54. Codec ID/Info                            : Picture based subtitle format used on BDs/HD-DVDs
  55. Duration                                 : 1 h 47 min
  56. Bit rate                                 : 55.5 kb/s
  57. Count of elements                        : 2920
  58. Stream size                              : 42.7 MiB (0%)
  59. Title                                    : English-PGS
  60. Language                                 : English
  61. Default                                  : Yes
  62. Forced                                   : No
  63. Text #2
  64. ID                                       : 4
  65. Format                                   : PGS
  66. Muxing mode                              : zlib
  67. Codec ID                                 : S_HDMV/PGS
  68. Codec ID/Info                            : Picture based subtitle format used on BDs/HD-DVDs
  69. Duration                                 : 1 h 47 min
  70. Bit rate                                 : 47.2 kb/s
  71. Count of elements                        : 2678
  72. Stream size                              : 36.4 MiB (0%)
  73. Title                                    : Spanish-PGS
  74. Language                                 : Spanish
  75. Default                                  : No
  76. Forced                                   : No
  77. Text #3
  78. ID                                       : 5
  79. Format                                   : PGS
  80. Muxing mode                              : zlib
  81. Codec ID                                 : S_HDMV/PGS
  82. Codec ID/Info                            : Picture based subtitle format used on BDs/HD-DVDs
  83. Duration                                 : 104 ms
  84. Bit rate                                 : 5 384 b/s
  85. Count of elements                        : 2
  86. Stream size                              : 70.0 Bytes (0%)
  87. Title                                    : English-FORCED-PGS
  88. Language                                 : English
  89. Default                                  : No
  90. Forced                                   : No
  91. Menu
  92. 00:00:00.000                             : en:Chapter 01
  93. 00:07:19.147                             : en:Chapter 02
  94. 00:13:24.053                             : en:Chapter 03
  95. 00:18:06.960                             : en:Chapter 04
  96. 00:28:05.100                             : en:Chapter 05
  97. 00:38:47.867                             : en:Chapter 06
  98. 00:44:31.377                             : en:Chapter 07
  99. 00:55:51.681                             : en:Chapter 08
  100. 01:04:24.861                             : en:Chapter 09
  101. 01:16:40.012                             : en:Chapter 10
  102. 01:24:29.731                             : en:Chapter 11
  103. 01:36:59.605                             : en:Chapter 12
复制代码






                                       
                                       

                                       
                                       
                                       




回复

使用道具 举报

懒得打字嘛,点击右侧快捷回复 【右侧内容,后台自定义】
您需要登录后才可以回帖 登录 | 立即加入

本版积分规则

Archiver|小黑屋| 蓝光电影网 |网站地图

Copyright © 2021 Comsenz Inc. Powered by 蓝光电影网

蓝光电影网

本站内容由用户自主分享和转载自互联网,转载目的在于传递更多信息,并不代表本网赞同其观点和对其真实性负责。

如有侵权、违反国家法律政策行为,请联系我们,我们会第一时间及时清除和处理!

举报反馈邮箱:[email protected]

快速回复 返回顶部 返回列表