找回密码

蓝光电影网

查看: 55|回复: 0

[动作] 柔道煞星/柔术 Jiu.Jitsu.2020.1080p.BluRay.REMUX.AVC.DTS-HD.MA.5.1-FGT 21.43GB

[复制链接]
蓝光币
515
发表于 2021-1-17 10:55:28 | 显示全部楼层 |阅读模式
[img][/img]

◎译  名 柔道煞星/柔术
◎片  名 Jiu Jitsu
◎年  代 2020
◎产  地 美国
◎类  别 行动 / 奇异
◎语  言 英语
◎上映日期 2020-11-20(美国) / 2020-12-04(荷兰)
◎IMDb评分  2.9/10 from 3582 users
◎IMDb链接  https://www.imdb.com/title/tt9624766/
◎豆瓣评分 3.0/10 from 524 users
◎豆瓣链接 https://movie.douban.com/subject/32578681/
◎片  长 102分钟
◎导  演 迪米特里·洛戈塞蒂斯 Dimitri Logothetis
◎编  剧 迪米特里·洛戈塞蒂斯 Dimitri Logothetis / 吉姆·麦格拉思 Jim McGrath
◎主  演 阿兰·莫西 Alain Moussi
       尼古拉斯·凯奇 Nicolas Cage
       尹成植 Rick Yune
       玛莉·艾格洛蒲露丝 Marie Avgeropoulos
       陈钰芸 Juju Chan
       托尼·贾 Tony Jaa
       弗兰克·格里罗 Frank Grillo
       汤姆·沃克 Tom Walker
       杰姆斯·班尼特 James P. Bennett
       马雷塞·克伦普 Marrese Crump
       约翰·D·希克曼 John D. Hickman
       兰迪·库卓 Randy Couture
◎标  签 行动 | 尼古拉斯·凯奇 | 奇异 | 美国 | 漫改 | 美国电影 | 2020 | 柔术
◎简  介


  尼古拉斯·凯奇、阿兰·莫西(《泰坦》《搏击之王》系列)将主演行动片《柔道煞星》(Jiu Jitsu),迪米特里·洛戈塞蒂斯(《搏击之王》系列)自编自导。基于同名漫画,报告一群现代的柔术高手每隔六年就要在一场争取地球的战役中面临可怕的外星入侵者。凯奇的脚色和他的柔术团队与莫西 的脚色联手获告捷利。
  1. Video
  2. ID                                       : 1
  3. ID in the original source medium         : 4113 (0x1011)
  4. Format                                   : AVC
  5. Format/Info                              : Advanced Video Codec
  6. Format profile                           : [email protected]
  7. Format settings                          : CABAC / 4 Ref Frames
  8. Format settings, CABAC                   : Yes
  9. Format settings, Reference frames        : 4 frames
  10. Codec ID                                 : V_MPEG4/ISO/AVC
  11. Duration                                 : 1 h 42 min
  12. Bit rate mode                            : Variable
  13. Bit rate                                 : 24.3 Mb/s
  14. Maximum bit rate                         : 35.0 Mb/s
  15. Width                                    : 1 920 pixels
  16. Height                                   : 1 080 pixels
  17. Display aspect ratio                     : 16:9
  18. Frame rate mode                          : Constant
  19. Frame rate                               : 23.976 (24000/1001/189150) FPS
  20. Color space                              : YUV
  21. Chroma subsampling                       : 4:2:0
  22. Bit depth                                : 8 bits
  23. Scan type                                : Progressive
  24. Bits/(Pixel*Frame)                       : 0.488
  25. Stream size                              : 17.3 GiB (81%)
  26. Language                                 : English
  27. Default                                  : No
  28. Forced                                   : No
  29. Color range                              : Limited
  30. Color primaries                          : BT.709
  31. Transfer characteristics                 : BT.709
  32. Matrix coefficients                      : BT.709
  33. Original source medium                   : Blu-ray
  34. Audio #1
  35. ID                                       : 2
  36. ID in the original source medium         : 4352 (0x1100)
  37. Format                                   : DTS XLL
  38. Format/Info                              : Digital Theater Systems
  39. Commercial name                          : DTS-HD Master Audio
  40. Codec ID                                 : A_DTS
  41. Duration                                 : 1 h 42 min
  42. Bit rate mode                            : Variable
  43. Bit rate                                 : 4 225 kb/s
  44. Channel(s)                               : 6 channels
  45. Channel layout                           : C L R Ls Rs LFE
  46. Sampling rate                            : 48.0 kHz
  47. Frame rate                               : 93.750 FPS (512 SPF)
  48. Bit depth                                : 24 bits
  49. Compression mode                         : Lossless
  50. Stream size                              : 3.01 GiB (14%)
  51. Title                                    : DTS-HD MA 5.1
  52. Language                                 : English
  53. Default                                  : Yes
  54. Forced                                   : No
  55. Original source medium                   : Blu-ray
  56. Audio #2
  57. ID                                       : 3
  58. ID in the original source medium         : 4353 (0x1101)
  59. Format                                   : PCM
  60. Format settings                          : Little / Signed
  61. Codec ID                                 : A_PCM/INT/LIT
  62. Duration                                 : 1 h 42 min
  63. Bit rate mode                            : Constant
  64. Bit rate                                 : 1 536 kb/s
  65. Channel(s)                               : 2 channels
  66. Sampling rate                            : 48.0 kHz
  67. Frame rate                               : 30.000 FPS (1600 SPF)
  68. Bit depth                                : 16 bits
  69. Stream size                              : 1.10 GiB (5%)
  70. Title                                    : LPCM 2.0
  71. Language                                 : English
  72. Default                                  : No
  73. Forced                                   : No
  74. Original source medium                   : Blu-ray
  75. Text #1
  76. ID                                       : 4
  77. Format                                   : UTF-8
  78. Codec ID                                 : S_TEXT/UTF8
  79. Codec ID/Info                            : UTF-8 Plain Text
  80. Duration                                 : 1 h 30 min
  81. Bit rate                                 : 23 b/s
  82. Count of elements                        : 627
  83. Stream size                              : 15.8 KiB (0%)
  84. Title                                    : English-SRT
  85. Language                                 : English
  86. Default                                  : Yes
  87. Forced                                   : No
  88. Text #2
  89. ID                                       : 5
  90. ID in the original source medium         : 4608 (0x1200)
  91. Format                                   : PGS
  92. Muxing mode                              : zlib
  93. Codec ID                                 : S_HDMV/PGS
  94. Codec ID/Info                            : Picture based subtitle format used on BDs/HD-DVDs
  95. Duration                                 : 1 h 36 min
  96. Bit rate                                 : 13.8 kb/s
  97. Count of elements                        : 1667
  98. Stream size                              : 9.49 MiB (0%)
  99. Title                                    : English-PGS
  100. Language                                 : English
  101. Default                                  : No
  102. Forced                                   : No
  103. Original source medium                   : Blu-ray
  104. Menu
  105. 00:00:00.000                             : en:Chapter 01
  106. 00:05:39.839                             : en:Chapter 02
  107. 00:14:15.813                             : en:Chapter 03
  108. 00:25:25.857                             : en:Chapter 04
  109. 00:33:13.658                             : en:Chapter 05
  110. 00:44:36.298                             : en:Chapter 06
  111. 00:53:18.612                             : en:Chapter 07
  112. 01:03:39.315                             : en:Chapter 08
  113. 01:11:08.555                             : en:Chapter 09
  114. 01:24:08.043                             : en:Chapter 10
  115. 01:29:45.213                             : en:Chapter 11
  116. 01:38:03.294                             : en:Chapter 12
复制代码



                                       
                                       

                                       
                                       
                                       




回复

使用道具 举报

懒得打字嘛,点击右侧快捷回复 【右侧内容,后台自定义】
您需要登录后才可以回帖 登录 | 立即加入

本版积分规则

Archiver|小黑屋| 蓝光电影网 |网站地图

Copyright © 2021 Comsenz Inc. Powered by 蓝光电影网

蓝光电影网

本站内容由用户自主分享和转载自互联网,转载目的在于传递更多信息,并不代表本网赞同其观点和对其真实性负责。

如有侵权、违反国家法律政策行为,请联系我们,我们会第一时间及时清除和处理!

举报反馈邮箱:[email protected]

快速回复 返回顶部 返回列表