找回密码

蓝光电影网

查看: 53|回复: 0

[动作] 天际浩劫3 Skylines.2020.1080p.BluRay.REMUX.AVC.DTS-HD.MA.5.1-FGT 20.76GB

[复制链接]
蓝光币
511
发表于 2021-1-16 22:47:48 | 显示全部楼层 |阅读模式
[img][/img]

◎译  名 天涯浩劫3/Skylin3s
◎片  名 Skylines
◎年  代 2020
◎产  地 美国
◎类  别 行动 / 科幻
◎语  言 英语
◎上映日期 2020-10-25(FrightFest) / 2020-12-18(美国)
◎IMDb评分  4.7/10 from 2464 users
◎IMDb链接  https://www.imdb.com/title/tt9387250/
◎豆瓣评分 4.7/10 from 772 users
◎豆瓣链接 https://movie.douban.com/subject/30371806/
◎导  演 连姆·O·达诺 Liam O'Donnell
◎编  剧 连姆·O·达诺 Liam O'Donnell
◎主  演 琳赛·摩根 Lindsey Morgan
       罗娜·迈特拉 Rhona Mitra
       丹尼尔·伯哈特 Daniel Bernhardt
       亚历山大·希迪格 Alexander Siddig
       詹姆斯·科兹莫 James Cosmo
       乔纳森·霍华德 Jonathan Howard
       列娃·安德烈瓦伊达 Ieva Andrejevaite
       杰罗米菲茨杰罗德 Jeremy Fitzgerald
       吉德雷·莫基利安妮特 Giedre Mockeliunaite
       Cha-Lee Yoon
◎标  签 科幻 | 美国 | 灾难 | 2020 | 科幻电影 | 续集 | 电影 | 行动
◎简  介


  经美国《银幕》杂志证实,《天涯浩劫》的第三部正在肯定投资方而且已经敲定了片名。报道还证实第二部的导演连姆·O·达诺极能够继续以导演和制片人的身份起头第三部续集的建造。演员声势有待公布,今朝消息称第二部主演弗兰科·格里罗以及其中曾出演《突袭》系列的伊科·乌艾斯和雅彦·鲁伊安不太能够回归。
  1. Video
  2. ID                                       : 1
  3. ID in the original source medium         : 4113 (0x1011)
  4. Format                                   : AVC
  5. Format/Info                              : Advanced Video Codec
  6. Format profile                           : [email protected]
  7. Format settings                          : CABAC / 3 Ref Frames
  8. Format settings, CABAC                   : Yes
  9. Format settings, Reference frames        : 3 frames
  10. Codec ID                                 : V_MPEG4/ISO/AVC
  11. Duration                                 : 1 h 53 min
  12. Bit rate mode                            : Variable
  13. Bit rate                                 : 22.6 Mb/s
  14. Maximum bit rate                         : 35.0 Mb/s
  15. Width                                    : 1 920 pixels
  16. Height                                   : 1 080 pixels
  17. Display aspect ratio                     : 16:9
  18. Frame rate mode                          : Constant
  19. Frame rate                               : 23.976 (24000/1001/189150) FPS
  20. Standard                                 : NTSC
  21. Color space                              : YUV
  22. Chroma subsampling                       : 4:2:0
  23. Bit depth                                : 8 bits
  24. Scan type                                : Progressive
  25. Bits/(Pixel*Frame)                       : 0.455
  26. Stream size                              : 17.9 GiB (86%)
  27. Language                                 : English
  28. Default                                  : No
  29. Forced                                   : No
  30. Color range                              : Limited
  31. Color primaries                          : BT.709
  32. Transfer characteristics                 : BT.709
  33. Matrix coefficients                      : BT.709
  34. Original source medium                   : Blu-ray
  35. Audio #1
  36. ID                                       : 2
  37. ID in the original source medium         : 4352 (0x1100)
  38. Format                                   : DTS XLL
  39. Format/Info                              : Digital Theater Systems
  40. Commercial name                          : DTS-HD Master Audio
  41. Codec ID                                 : A_DTS
  42. Duration                                 : 1 h 53 min
  43. Bit rate mode                            : Variable
  44. Bit rate                                 : 2 054 kb/s
  45. Channel(s)                               : 6 channels
  46. Channel layout                           : C L R Ls Rs LFE
  47. Sampling rate                            : 48.0 kHz
  48. Frame rate                               : 93.750 FPS (512 SPF)
  49. Bit depth                                : 16 bits
  50. Compression mode                         : Lossless
  51. Stream size                              : 1.63 GiB (8%)
  52. Title                                    : DTS-HD MA 5.1
  53. Language                                 : English
  54. Default                                  : Yes
  55. Forced                                   : No
  56. Original source medium                   : Blu-ray
  57. Audio #2
  58. ID                                       : 3
  59. ID in the original source medium         : 4353 (0x1101)
  60. Format                                   : PCM
  61. Format settings                          : Little / Signed
  62. Codec ID                                 : A_PCM/INT/LIT
  63. Duration                                 : 1 h 53 min
  64. Bit rate mode                            : Constant
  65. Bit rate                                 : 1 536 kb/s
  66. Channel(s)                               : 2 channels
  67. Sampling rate                            : 48.0 kHz
  68. Frame rate                               : 30.000 FPS (1600 SPF)
  69. Bit depth                                : 16 bits
  70. Stream size                              : 1.22 GiB (6%)
  71. Title                                    : LPCM 2.0
  72. Language                                 : English
  73. Default                                  : No
  74. Forced                                   : No
  75. Original source medium                   : Blu-ray
  76. Text #1
  77. ID                                       : 4
  78. Format                                   : UTF-8
  79. Codec ID                                 : S_TEXT/UTF8
  80. Codec ID/Info                            : UTF-8 Plain Text
  81. Duration                                 : 1 h 44 min
  82. Bit rate                                 : 38 b/s
  83. Count of elements                        : 1021
  84. Stream size                              : 29.4 KiB (0%)
  85. Title                                    : English-SRT
  86. Language                                 : English
  87. Default                                  : Yes
  88. Forced                                   : No
  89. Text #2
  90. ID                                       : 5
  91. ID in the original source medium         : 4608 (0x1200)
  92. Format                                   : PGS
  93. Muxing mode                              : zlib
  94. Codec ID                                 : S_HDMV/PGS
  95. Codec ID/Info                            : Picture based subtitle format used on BDs/HD-DVDs
  96. Duration                                 : 1 h 44 min
  97. Bit rate                                 : 25.8 kb/s
  98. Count of elements                        : 2580
  99. Stream size                              : 19.2 MiB (0%)
  100. Title                                    : English-PGS
  101. Language                                 : English
  102. Default                                  : No
  103. Forced                                   : No
  104. Original source medium                   : Blu-ray
  105. Menu
  106. 00:00:00.000                             : en:Chapter 01
  107. 00:17:53.614                             : en:Chapter 02
  108. 00:32:07.842                             : en:Chapter 03
  109. 00:51:53.110                             : en:Chapter 04
  110. 01:13:12.179                             : en:Chapter 05
  111. 01:34:54.146                             : en:Chapter 06
复制代码



                                       
                                       

                                       
                                       
                                       




回复

使用道具 举报

懒得打字嘛,点击右侧快捷回复 【右侧内容,后台自定义】
您需要登录后才可以回帖 登录 | 立即加入

本版积分规则

Archiver|小黑屋| 蓝光电影网 |网站地图

Copyright © 2021 Comsenz Inc. Powered by 蓝光电影网

蓝光电影网

本站内容由用户自主分享和转载自互联网,转载目的在于传递更多信息,并不代表本网赞同其观点和对其真实性负责。

如有侵权、违反国家法律政策行为,请联系我们,我们会第一时间及时清除和处理!

举报反馈邮箱:[email protected]

快速回复 返回顶部 返回列表