找回密码

蓝光电影网

查看: 23|回复: 0

[喜剧] 仁心与冠冕/好心肠与王冠 Kind.Hearts.and.Coronets.1949.REMASTERED.1080p.BluRay.REMUX.AVC.LPCM.2.0-FGT 26.81GB

[复制链接]
蓝光币
515
发表于 2019-6-26 21:34:30 | 显示全部楼层 |阅读模式


◎译  名 仁心与冠冕 / 好心地与王冠 / 好生之德
◎片  名 Kind Hearts and Coronets
◎年  代 1949
◎产  地 英国
◎类  别 笑剧 / 犯罪
◎语  言 英语
◎上映日期 1949-06-21
◎IMDb评分  8.1/10 from 31908 users
◎IMDb链接  http://www.imdb.com/title/tt0041546
◎豆瓣评分 8.5/10 from 3576 users
◎豆瓣链接 https://movie.douban.com/subject/1295995/
◎片  长 106 分钟
◎导  演 Robert Hamer
◎编  剧 John Dighton / Robert Hamer
◎主  演 Alec Guinness
      Valerie Hobson
      Dennis Price

◎标  签 英国 | 笑剧 | 黑色诙谐 | 犯罪 | 英国电影 | 黑白 | 1949 | 典范
◎简  介  
  路易斯(丹尼斯·普莱斯 Dennis Price 饰)的母亲身世崇高的阿斯特内家属,但因和一个意大利讴歌家私奔,至死都受抵家属排挤。已经长大成人的路易斯深深服膺贵族亲戚们拒绝母亲葬在家庭墓地的嘴脸,又履历心爱的少女茜贝拉(简·格林伍德 Joan Greenwood 饰)因他贫困拒绝他的求婚,因而动手展开他的复仇计划。他把有爵位继续权的男性支属一个个用计谋杀掉,旨在自己可以获得公爵爵位,在杀人变得越来越驾轻就熟后,连老弱妇孺都不愿放过,归正他总能制造各类偶合,历来没有人思疑到他身上。但在复仇计划履行的同时,他也堕入豪情困扰——嫁人后的茜贝拉和他藕断丝连,又有个家属内美丽的遗孀艾迪丝(Valerie Hobson 饰)爱上了他,愿意和他订婚,在路易斯自得洋洋继续爵位和举行婚礼之际,他的罪行似乎也要败事……
◎获奖情况  
  第10届威尼斯电影节(1949)
  主比赛单元 金狮奖 (提名) 罗伯特·哈默
  国际奖 最好艺术指导 William Kellner

  1. Video
  2. ID                                       : 1
  3. Format                                   : AVC
  4. Format/Info                              : Advanced Video Codec
  5. Format profile                           : [email protected]
  6. Format settings                          : CABAC / 4 Ref Frames
  7. Format settings, CABAC                   : Yes
  8. Format settings, ReFrames                : 4 frames
  9. Codec ID                                 : V_MPEG4/ISO/AVC
  10. Duration                                 : 1 h 46 min
  11. Bit rate mode                            : Variable
  12. Bit rate                                 : 33.9 Mb/s
  13. Maximum bit rate                         : 38.0 Mb/s
  14. Width                                    : 1 920 pixels
  15. Height                                   : 1 080 pixels
  16. Display aspect ratio                     : 16:9
  17. Frame rate mode                          : Constant
  18. Frame rate                               : 24.000 FPS
  19. Color space                              : YUV
  20. Chroma subsampling                       : 4:2:0
  21. Bit depth                                : 8 bits
  22. Scan type                                : Progressive
  23. Bits/(Pixel*Frame)                       : 0.681
  24. Stream size                              : 25.1 GiB (94%)
  25. Title                                    : Kind.Hearts.and.Coronets.1949.REMASTERED.1080p.BluRay.REMUX.AVC.LPCM.2.0-FGT
  26. Language                                 : English
  27. Default                                  : No
  28. Forced                                   : No
  29. Audio
  30. ID                                       : 2
  31. Format                                   : PCM
  32. Format settings                          : Little / Signed
  33. Codec ID                                 : A_PCM/INT/LIT
  34. Duration                                 : 1 h 46 min
  35. Bit rate mode                            : Constant
  36. Bit rate                                 : 2 304 kb/s
  37. Channel(s)                               : 2 channels
  38. Sampling rate                            : 48.0 kHz
  39. Frame rate                               : 30.000 FPS (1600 SPF)
  40. Bit depth                                : 24 bits
  41. Stream size                              : 1.71 GiB (6%)
  42. Title                                    : Kind.Hearts.and.Coronets.1949.REMASTERED.1080p.BluRay.REMUX.AVC.LPCM.2.0-FGT
  43. Language                                 : English
  44. Default                                  : Yes
  45. Forced                                   : No
  46. Menu
  47. 00:00:00.000                             : en:Chapter 01
  48. 00:06:49.791                             : en:Chapter 02
  49. 00:10:54.250                             : en:Chapter 03
  50. 00:20:18.500                             : en:Chapter 04
  51. 00:29:52.000                             : en:Chapter 05
  52. 00:41:02.666                             : en:Chapter 06
  53. 00:52:33.333                             : en:Chapter 07
  54. 01:00:06.208                             : en:Chapter 08
  55. 01:07:26.625                             : en:Chapter 09
  56. 01:15:15.375                             : en:Chapter 10
  57. 01:29:45.083                             : en:Chapter 11
  58. 01:45:24.750                             : en:Chapter 12
复制代码






                                       
                                       

                                       
                                       
                                       




回复

使用道具 举报

懒得打字嘛,点击右侧快捷回复 【右侧内容,后台自定义】
您需要登录后才可以回帖 登录 | 立即加入

本版积分规则

Archiver|小黑屋| 蓝光电影网 |网站地图

Copyright © 2021 Comsenz Inc. Powered by 蓝光电影网

蓝光电影网

本站内容由用户自主分享和转载自互联网,转载目的在于传递更多信息,并不代表本网赞同其观点和对其真实性负责。

如有侵权、违反国家法律政策行为,请联系我们,我们会第一时间及时清除和处理!

举报反馈邮箱:[email protected]

快速回复 返回顶部 返回列表