找回密码

蓝光电影网

查看: 11|回复: 0

[动作] 雷神2:黑暗世界 Thor.The.Dark.World.2013.REMASTERED.1080p.BluRay.x264.TrueHD.7.1.Atmos-SWTYBLZ 18.33GB

[复制链接]
蓝光币
511
发表于 2019-8-11 03:04:00 | 显示全部楼层 |阅读模式
[img]https://img1.doubanio.com/view/photo/l_ratio_poster/public/p2156839164.jpg[img]
◎译  名 雷神2:黑暗天下 / Marvel's Thor: The Dark World / Thor 2 / 雷神2:黑暗国家 / 雷奇异侠2:黑暗天下(港) / 雷神托尔2 / 雷神索尔2:黑暗天下(台)
◎片  名 Thor: The Dark World
◎年  代 2013
◎产  地 美国
◎类  别 行动 / 奇异 / 冒险
◎语  言 英语
◎上映日期 2013-11-08(中国大陆/美国)
◎IMDb评分  6.9/10 from 548286 users
◎IMDb链接  http://www.imdb.com/title/tt1981115
◎豆瓣评分 7.4/10 from 252390 users
◎豆瓣链接 https://movie.douban.com/subject/6560058/
◎片  长 112分钟
◎导  演 阿兰·泰勒 Alan Taylor
◎编  剧 克里斯托弗·约斯特 Christopher Yost / 克里斯托弗·马库斯 Christopher Markus / 斯蒂芬·麦克菲利 Stephen McFeely / 唐·佩恩 Don Payne / 罗伯特·罗达特 Robert Rodat / 斯坦·李 Stan Lee / 拉里·利伯 Larry Lieber / 杰克·科比 Jack Kirby / 沃尔特·西蒙森 Walter Simonson
◎主  演 克里斯·海姆斯沃斯 Chris Hemsworth
       娜塔莉·波特曼 Natalie Portman
       汤姆·希德勒斯顿 Tom Hiddleston
       安东尼·霍普金斯 Anthony Hopkins
       克里斯托弗·埃克莱斯顿 Christopher Eccleston
       杰米·亚历山大 Jaimie Alexander
       扎克瑞·莱维 Zachary Levi
       雷·史蒂文森 Ray Stevenson
       浅野忠信 Tadanobu Asano
       伊德里斯·艾尔巴 Idris Elba
       蕾妮·罗素 Rene Russo
       阿德沃尔·阿吉纽依-艾格拜吉 Adewale Akinnuoye-Agbaje
       凯特·戴琳斯 Kat Dennings
       斯特兰·斯卡斯加德 Stellan Skarsg?rd
       艾丽丝·克里奇 Alice Krige
       克里夫·罗素 Clive Russell
       乔纳森·霍华德 Jonathan Howard
       克里斯·奥多德 Chris O'Dowd
       妲露拉·莱莉 Talulah Riley
       奥菲利亚·拉维邦德 Ophelia Lovibond
       本尼西奥·德尔·托罗 Benicio Del Toro
       斯坦·李 Stan Lee

◎标  签 美国 | 科幻 | Marvel | 漫画改编 | 漫威 | 行动 | 超级豪杰 | 2013
◎简  介  
  纽约大战后,雷神索尔(克里斯·海姆斯沃斯 Chris Hemsworth 饰)将弟弟洛基(汤姆·希德勒斯顿 Tom Hiddleston 饰)带回仙宫软禁起来,此外帮助九大国家安定纷争,威名扶摇直上。虽然父王奥丁(安东尼·霍普金斯 Anthony Hopkins 饰)劝其尽早即位,但索尔记忆犹新地球的美丽女孩简·福斯特(娜塔丽·波特曼 Natalie Portman 饰)。与此同时,简在和黛西及其助手伊安观察某个地区时意外被奥秘物资入侵,却也是以重逢索尔,并随其返回仙宫。使人意想不到的是,藏在简体内的物资来自太古的黑暗精灵玛勒基斯(克里斯托弗·埃克莱斯顿 Christopher Eccleston 饰)。在“天体味聚”的时辰再次到来之际,玛勒基斯诡计摧毁九大国家,缔造一个全然黑暗的宇宙。
  藏匿简的仙宫遭到重创,而索尔和洛基这对朋友兄弟也不能不联手迎战宿命的强敌……
◎获奖情况  
  第23届MTV电影奖(2014)
  MTV电影奖 最好赤膊表演(提名) 克里斯·海姆斯沃斯
  MTV电影奖 最好豪杰形象(提名) 克里斯·海姆斯沃斯
  第16届美国青少年挑选奖(2014)
  最好科幻/奇异电影(提名)
  最好科幻/奇异电影男演员(提名) 克里斯·海姆斯沃斯
  最好科幻/奇异电影女演员(提名) 娜塔莉·波特曼
  第4届豆瓣电影鑫像奖(2014)
  鑫豆单元 最好科幻/行动片(提名)
  豆渣单元 最渣女演员(外语)(提名) 娜塔莉·波特曼
  1. Video
  2. ID                                       : 1
  3. Format                                   : AVC
  4. Format/Info                              : Advanced Video Codec
  5. Format profile                           : [email protected]
  6. Format settings                          : CABAC / 5 Ref Frames
  7. Format settings, CABAC                   : Yes
  8. Format settings, Reference frames        : 5 frames
  9. Codec ID                                 : V_MPEG4/ISO/AVC
  10. Duration                                 : 1 h 52 min
  11. Bit rate                                 : 18.0 Mb/s
  12. Width                                    : 1 920 pixels
  13. Height                                   : 800 pixels
  14. Display aspect ratio                     : 2.40:1
  15. Frame rate mode                          : Constant
  16. Frame rate                               : 23.976 (24000/1001) FPS
  17. Color space                              : YUV
  18. Chroma subsampling                       : 4:2:0
  19. Bit depth                                : 8 bits
  20. Scan type                                : Progressive
  21. Bits/(Pixel*Frame)                       : 0.490
  22. Stream size                              : 14.1 GiB (77%)
  23. Title                                    : Thor.The.Dark.World.2013.REMASTERED.1080p.BluRay.x264.TrueHD.7.1.Atmos-SWTYBLZ
  24. Writing library                          : x264 core 157 r2935 545de2f
  25. Encoding settings                        : cabac=1 / ref=5 / deblock=1:-1:-1 / analyse=0x3:0x133 / me=umh / subme=10 / psy=1 / psy_rd=1.00:0.15 / mixed_ref=1 / me_range=48 / chroma_me=1 / trellis=2 / 8x8dct=1 / cqm=0 / deadzone=21,11 / fast_pskip=1 / chroma_qp_offset=-3 / threads=25 / lookahead_threads=4 / sliced_threads=0 / nr=0 / decimate=0 / interlaced=0 / bluray_compat=0 / constrained_intra=0 / bframes=8 / b_pyramid=2 / b_adapt=2 / b_bias=0 / direct=3 / weightb=1 / open_gop=0 / weightp=2 / keyint=250 / keyint_min=23 / scenecut=40 / intra_refresh=0 / rc_lookahead=60 / rc=crf / mbtree=1 / crf=11.0 / qcomp=0.60 / qpmin=0 / qpmax=69 / qpstep=4 / ip_ratio=1.40 / aq=1:1.00
  26. Default                                  : Yes
  27. Forced                                   : No
  28. Audio #1
  29. ID                                       : 2
  30. Format                                   : MLP FBA 16-ch
  31. Format/Info                              : Meridian Lossless Packing FBA with 16-channel presentation
  32. Commercial name                          : Dolby TrueHD with Dolby Atmos
  33. Codec ID                                 : A_TRUEHD
  34. Duration                                 : 1 h 52 min
  35. Bit rate mode                            : Variable
  36. Bit rate                                 : 4 579 kb/s
  37. Maximum bit rate                         : 8 301 kb/s
  38. Channel(s)                               : 8 channels
  39. Channel layout                           : L R C LFE Ls Rs Lb Rb
  40. Sampling rate                            : 48.0 kHz
  41. Frame rate                               : 1 200.000 FPS (40 SPF)
  42. Compression mode                         : Lossless
  43. Stream size                              : 3.58 GiB (20%)
  44. Title                                    : Thor.The.Dark.World.2013.REMASTERED.1080p.BluRay.x264.TrueHD.7.1.Atmos-SWTYBLZ
  45. Language                                 : English
  46. Default                                  : Yes
  47. Forced                                   : No
  48. Number of dynamic objects                : 13
  49. Bed channel count                        : 1 channel
  50. Bed channel configuration                : LFE
  51. Audio #2
  52. ID                                       : 3
  53. Format                                   : AC-3
  54. Format/Info                              : Audio Coding 3
  55. Commercial name                          : Dolby Digital
  56. Codec ID                                 : A_AC3
  57. Duration                                 : 1 h 52 min
  58. Bit rate mode                            : Constant
  59. Bit rate                                 : 640 kb/s
  60. Channel(s)                               : 6 channels
  61. Channel layout                           : L R C LFE Ls Rs
  62. Sampling rate                            : 48.0 kHz
  63. Frame rate                               : 31.250 FPS (1536 SPF)
  64. Bit depth                                : 16 bits
  65. Compression mode                         : Lossy
  66. Stream size                              : 513 MiB (3%)
  67. Title                                    : Thor.The.Dark.World.2013.REMASTERED.1080p.BluRay.x264.TrueHD.7.1.Atmos-SWTYBLZ
  68. Language                                 : English
  69. Service kind                             : Complete Main
  70. Default                                  : No
  71. Forced                                   : No
  72. Text #1
  73. ID                                       : 4
  74. Format                                   : UTF-8
  75. Codec ID                                 : S_TEXT/UTF8
  76. Codec ID/Info                            : UTF-8 Plain Text
  77. Duration                                 : 1 h 13 min
  78. Bit rate                                 : 1 b/s
  79. Count of elements                        : 30
  80. Stream size                              : 995 Bytes (0%)
  81. Title                                    : English-FORCED-SRT
  82. Language                                 : English
  83. Default                                  : Yes
  84. Forced                                   : Yes
  85. Text #2
  86. ID                                       : 5
  87. Format                                   : UTF-8
  88. Codec ID                                 : S_TEXT/UTF8
  89. Codec ID/Info                            : UTF-8 Plain Text
  90. Duration                                 : 1 h 45 min
  91. Bit rate                                 : 41 b/s
  92. Count of elements                        : 1103
  93. Stream size                              : 31.6 KiB (0%)
  94. Title                                    : English-SRT
  95. Language                                 : English
  96. Default                                  : No
  97. Forced                                   : No
  98. Text #3
  99. ID                                       : 6
  100. Format                                   : PGS
  101. Muxing mode                              : zlib
  102. Codec ID                                 : S_HDMV/PGS
  103. Codec ID/Info                            : Picture based subtitle format used on BDs/HD-DVDs
  104. Duration                                 : 1 h 13 min
  105. Bit rate                                 : 562 b/s
  106. Count of elements                        : 56
  107. Stream size                              : 305 KiB (0%)
  108. Title                                    : English-FORCED-PGS
  109. Language                                 : English
  110. Default                                  : No
  111. Forced                                   : No
  112. Text #4
  113. ID                                       : 7
  114. Format                                   : PGS
  115. Muxing mode                              : zlib
  116. Codec ID                                 : S_HDMV/PGS
  117. Codec ID/Info                            : Picture based subtitle format used on BDs/HD-DVDs
  118. Duration                                 : 1 h 51 min
  119. Bit rate                                 : 34.1 kb/s
  120. Count of elements                        : 2757
  121. Stream size                              : 27.1 MiB (0%)
  122. Title                                    : English-PGS
  123. Language                                 : English
  124. Default                                  : No
  125. Forced                                   : No
  126. Text #5
  127. ID                                       : 8
  128. Format                                   : PGS
  129. Muxing mode                              : zlib
  130. Codec ID                                 : S_HDMV/PGS
  131. Codec ID/Info                            : Picture based subtitle format used on BDs/HD-DVDs
  132. Duration                                 : 1 h 51 min
  133. Bit rate                                 : 28.8 kb/s
  134. Count of elements                        : 2222
  135. Stream size                              : 23.0 MiB (0%)
  136. Title                                    : French-PGS
  137. Language                                 : French
  138. Default                                  : No
  139. Forced                                   : No
  140. Text #6
  141. ID                                       : 9
  142. Format                                   : PGS
  143. Muxing mode                              : zlib
  144. Codec ID                                 : S_HDMV/PGS
  145. Codec ID/Info                            : Picture based subtitle format used on BDs/HD-DVDs
  146. Duration                                 : 1 h 51 min
  147. Bit rate                                 : 23.9 kb/s
  148. Count of elements                        : 2124
  149. Stream size                              : 19.1 MiB (0%)
  150. Title                                    : French-PGS
  151. Language                                 : French
  152. Default                                  : No
  153. Forced                                   : No
  154. Text #7
  155. ID                                       : 10
  156. Format                                   : PGS
  157. Muxing mode                              : zlib
  158. Codec ID                                 : S_HDMV/PGS
  159. Codec ID/Info                            : Picture based subtitle format used on BDs/HD-DVDs
  160. Duration                                 : 1 h 45 min
  161. Bit rate                                 : 27.6 kb/s
  162. Count of elements                        : 2020
  163. Stream size                              : 20.7 MiB (0%)
  164. Title                                    : German-PGS
  165. Language                                 : German
  166. Default                                  : No
  167. Forced                                   : No
  168. Text #8
  169. ID                                       : 11
  170. Format                                   : PGS
  171. Muxing mode                              : zlib
  172. Codec ID                                 : S_HDMV/PGS
  173. Codec ID/Info                            : Picture based subtitle format used on BDs/HD-DVDs
  174. Duration                                 : 1 h 51 min
  175. Bit rate                                 : 29.2 kb/s
  176. Count of elements                        : 2164
  177. Stream size                              : 23.3 MiB (0%)
  178. Title                                    : Italian-PGS
  179. Language                                 : Italian
  180. Default                                  : No
  181. Forced                                   : No
  182. Text #9
  183. ID                                       : 12
  184. Format                                   : PGS
  185. Muxing mode                              : zlib
  186. Codec ID                                 : S_HDMV/PGS
  187. Codec ID/Info                            : Picture based subtitle format used on BDs/HD-DVDs
  188. Duration                                 : 1 h 51 min
  189. Bit rate                                 : 15.9 kb/s
  190. Count of elements                        : 1934
  191. Stream size                              : 12.6 MiB (0%)
  192. Title                                    : Japanese-PGS
  193. Language                                 : Japanese
  194. Default                                  : No
  195. Forced                                   : No
  196. Text #10
  197. ID                                       : 13
  198. Format                                   : PGS
  199. Muxing mode                              : zlib
  200. Codec ID                                 : S_HDMV/PGS
  201. Codec ID/Info                            : Picture based subtitle format used on BDs/HD-DVDs
  202. Duration                                 : 1 h 51 min
  203. Bit rate                                 : 26.7 kb/s
  204. Count of elements                        : 2156
  205. Stream size                              : 21.3 MiB (0%)
  206. Title                                    : Norwegian-PGS
  207. Language                                 : Norwegian
  208. Default                                  : No
  209. Forced                                   : No
  210. Text #11
  211. ID                                       : 14
  212. Format                                   : PGS
  213. Muxing mode                              : zlib
  214. Codec ID                                 : S_HDMV/PGS
  215. Codec ID/Info                            : Picture based subtitle format used on BDs/HD-DVDs
  216. Duration                                 : 1 h 51 min
  217. Bit rate                                 : 28.5 kb/s
  218. Count of elements                        : 2164
  219. Stream size                              : 22.7 MiB (0%)
  220. Title                                    : Spanish-PGS
  221. Language                                 : Spanish
  222. Default                                  : No
  223. Forced                                   : No
  224. Text #12
  225. ID                                       : 15
  226. Format                                   : PGS
  227. Muxing mode                              : zlib
  228. Codec ID                                 : S_HDMV/PGS
  229. Codec ID/Info                            : Picture based subtitle format used on BDs/HD-DVDs
  230. Duration                                 : 1 h 51 min
  231. Bit rate                                 : 24.2 kb/s
  232. Count of elements                        : 1412
  233. Stream size                              : 19.3 MiB (0%)
  234. Title                                    : Swedish-PGS
  235. Language                                 : Swedish
  236. Default                                  : No
  237. Forced                                   : No
  238. Menu
  239. 00:00:00.000                             : en:Chapter 01
  240. 00:06:13.664                             : en:Chapter 02
  241. 00:13:05.201                             : en:Chapter 03
  242. 00:18:40.994                             : en:Chapter 04
  243. 00:24:56.703                             : en:Chapter 05
  244. 00:29:07.495                             : en:Chapter 06
  245. 00:41:33.365                             : en:Chapter 07
  246. 00:49:40.227                             : en:Chapter 08
  247. 00:55:56.144                             : en:Chapter 09
  248. 01:00:08.855                             : en:Chapter 10
  249. 01:08:12.671                             : en:Chapter 11
  250. 01:12:39.897                             : en:Chapter 12
  251. 01:21:34.180                             : en:Chapter 13
  252. 01:26:22.093                             : en:Chapter 14
  253. 01:33:58.799                             : en:Chapter 15
  254. 01:38:31.363                             : en:Chapter 16
  255. 01:41:49.228                             : en:Chapter 17
复制代码






                                       
                                       

                                       
                                       
                                       




回复

使用道具 举报

懒得打字嘛,点击右侧快捷回复 【右侧内容,后台自定义】
您需要登录后才可以回帖 登录 | 立即加入

本版积分规则

Archiver|小黑屋| 蓝光电影网 |网站地图

Copyright © 2021 Comsenz Inc. Powered by 蓝光电影网

蓝光电影网

本站内容由用户自主分享和转载自互联网,转载目的在于传递更多信息,并不代表本网赞同其观点和对其真实性负责。

如有侵权、违反国家法律政策行为,请联系我们,我们会第一时间及时清除和处理!

举报反馈邮箱:[email protected]

快速回复 返回顶部 返回列表