找回密码

蓝光电影网

查看: 20|回复: 0

[剧情] 木乃伊 The.Mummy.1932.1080p.BluRay.REMUX.AVC.DTS-HD.MA.2.0-FGT 18.47GB

[复制链接]
蓝光币
515
发表于 2019-7-20 13:11:31 | 显示全部楼层 |阅读模式


◎译  名 木乃伊 / Cagliostro / Im-Ho-Tep / King of the Dead
◎片  名 The Mummy
◎年  代 1932
◎产  地 美国
◎类  别 剧情 / 可骇 / 奇异
◎语  言 英语
◎上映日期 1932-12-22
◎IMDb评分  7.2/10 from 20822 users
◎IMDb链接  http://www.imdb.com/title/tt0023245
◎豆瓣评分 7.2/10 from 730 users
◎豆瓣链接 https://movie.douban.com/subject/1299480/
◎片  长 73 分钟
◎导  演 Karl Freund
◎编  剧 John L. Balderston
◎主  演 Boris Karloff
      Zita Johann
      David Manners
      Arthur Byron
      Edward Van Sloan
      Bramwell Fletcher

◎标  签 美国 | 可骇 | 木乃伊 | 美国电影 | 1930s | 1932 | 黑白 | 魔幻
◎简  介  
  故事发生的时候是一九二一年,一支探险队在埃及发现了古埃及王子因霍特的木乃伊,因霍特由于遭到法老的诅咒,因此被作为祭品而活生坑葬。与此同时,在因霍特的泉台中,也发现了特霍斯的奥秘卷轴,听说这类卷轴可以重新赋予死去的人以生命。一天早晨,探险队中得一位年轻队员无意中高声朗诵了这份卷轴,然后忽然倡议狂来,他忽然意想到他的这类行为将把因霍特酿成活人。十年以后,这个木乃伊假扮为一个现代埃及人,试图重新与他落空的爱人团圆。他的爱人也是一位绮年玉貌的再生的古埃及公主。
幕后花絮
这是二十世纪三十年月的一部典范可骇片,那时有声片对于人们来说仍然是新奇的,电影建造人也在不竭地实验各类崭新的讲故事的方式,影象气概经常遭到德国表示主义的深入影响。究竟上,《木乃伊》的导演卡尔·弗莱伊德在三十年月还导演了别的一部典范电影《疯狂的爱》。卡尔·弗莱伊德已经担任过弗里茨·朗的典范科幻电影《大都会》的摄影师也曾担任过F·W·瑁瑙的一些电影的摄影师和美工师。《木乃伊》明显欠下典范可骇片《德拉库拉》一笔债。在本片中,饰演配角的是很是有才华的演员波利斯·卡诺夫,他把木乃伊霍特演得活灵活现,而木乃伊的情人古埃及公主蔷的饰演者泽塔·琼是一位著名的舞台演员,她有一张布满异国情调的面孔,也给本片增色很多。
  1. Video
  2. ID                                       : 1
  3. Format                                   : AVC
  4. Format/Info                              : Advanced Video Codec
  5. Format profile                           : [email protected]
  6. Format settings                          : CABAC / 4 Ref Frames
  7. Format settings, CABAC                   : Yes
  8. Format settings, Reference frames        : 4 frames
  9. Format settings, GOP                     : M=3, N=12
  10. Codec ID                                 : V_MPEG4/ISO/AVC
  11. Duration                                 : 1 h 13 min
  12. Bit rate mode                            : Variable
  13. Bit rate                                 : 31.8 Mb/s
  14. Maximum bit rate                         : 35.0 Mb/s
  15. Width                                    : 1 920 pixels
  16. Height                                   : 1 080 pixels
  17. Display aspect ratio                     : 16:9
  18. Frame rate mode                          : Constant
  19. Frame rate                               : 23.976 (24000/1001) FPS
  20. Color space                              : YUV
  21. Chroma subsampling                       : 4:2:0
  22. Bit depth                                : 8 bits
  23. Scan type                                : Progressive
  24. Bits/(Pixel*Frame)                       : 0.639
  25. Stream size                              : 16.2 GiB (88%)
  26. Title                                    : The.Mummy.1932.1080p.BluRay.REMUX.AVC.DTS-HD.MA.2.0-FGT
  27. Language                                 : English
  28. Default                                  : No
  29. Forced                                   : No
  30. Audio #1
  31. ID                                       : 2
  32. Format                                   : DTS XLL
  33. Format/Info                              : Digital Theater Systems
  34. Commercial name                          : DTS-HD Master Audio
  35. Codec ID                                 : A_DTS
  36. Duration                                 : 1 h 13 min
  37. Bit rate mode                            : Variable
  38. Bit rate                                 : 1 967 kb/s
  39. Channel(s)                               : 2 channels
  40. Channel layout                           : L R
  41. Sampling rate                            : 48.0 kHz
  42. Frame rate                               : 93.750 FPS (512 SPF)
  43. Bit depth                                : 24 bits
  44. Compression mode                         : Lossless
  45. Stream size                              : 1.00 GiB (5%)
  46. Title                                    : The.Mummy.1932.1080p.BluRay.REMUX.AVC.DTS-HD.MA.2.0-FGT
  47. Language                                 : English
  48. Default                                  : Yes
  49. Forced                                   : No
  50. Audio #2
  51. ID                                       : 3
  52. Format                                   : DTS
  53. Format/Info                              : Digital Theater Systems
  54. Codec ID                                 : A_DTS
  55. Duration                                 : 1 h 13 min
  56. Bit rate mode                            : Constant
  57. Bit rate                                 : 447 kb/s
  58. Channel(s)                               : 2 channels
  59. Channel layout                           : L R
  60. Sampling rate                            : 48.0 kHz
  61. Frame rate                               : 93.750 FPS (512 SPF)
  62. Bit depth                                : 24 bits
  63. Compression mode                         : Lossy
  64. Stream size                              : 234 MiB (1%)
  65. Title                                    : The.Mummy.1932.1080p.BluRay.REMUX.AVC.DTS-HD.MA.2.0-FGT
  66. Language                                 : French
  67. Default                                  : No
  68. Forced                                   : No
  69. Audio #3
  70. ID                                       : 4
  71. Format                                   : DTS
  72. Format/Info                              : Digital Theater Systems
  73. Codec ID                                 : A_DTS
  74. Duration                                 : 1 h 13 min
  75. Bit rate mode                            : Constant
  76. Bit rate                                 : 447 kb/s
  77. Channel(s)                               : 2 channels
  78. Channel layout                           : L R
  79. Sampling rate                            : 48.0 kHz
  80. Frame rate                               : 93.750 FPS (512 SPF)
  81. Bit depth                                : 24 bits
  82. Compression mode                         : Lossy
  83. Stream size                              : 234 MiB (1%)
  84. Title                                    : The.Mummy.1932.1080p.BluRay.REMUX.AVC.DTS-HD.MA.2.0-FGT
  85. Language                                 : Italian
  86. Default                                  : No
  87. Forced                                   : No
  88. Audio #4
  89. ID                                       : 5
  90. Format                                   : DTS
  91. Format/Info                              : Digital Theater Systems
  92. Codec ID                                 : A_DTS
  93. Duration                                 : 1 h 13 min
  94. Bit rate mode                            : Constant
  95. Bit rate                                 : 447 kb/s
  96. Channel(s)                               : 2 channels
  97. Channel layout                           : L R
  98. Sampling rate                            : 48.0 kHz
  99. Frame rate                               : 93.750 FPS (512 SPF)
  100. Bit depth                                : 24 bits
  101. Compression mode                         : Lossy
  102. Stream size                              : 234 MiB (1%)
  103. Title                                    : The.Mummy.1932.1080p.BluRay.REMUX.AVC.DTS-HD.MA.2.0-FGT
  104. Language                                 : German
  105. Default                                  : No
  106. Forced                                   : No
  107. Audio #5
  108. ID                                       : 6
  109. Format                                   : DTS
  110. Format/Info                              : Digital Theater Systems
  111. Codec ID                                 : A_DTS
  112. Duration                                 : 1 h 13 min
  113. Bit rate mode                            : Constant
  114. Bit rate                                 : 447 kb/s
  115. Channel(s)                               : 2 channels
  116. Channel layout                           : L R
  117. Sampling rate                            : 48.0 kHz
  118. Frame rate                               : 93.750 FPS (512 SPF)
  119. Bit depth                                : 24 bits
  120. Compression mode                         : Lossy
  121. Stream size                              : 234 MiB (1%)
  122. Title                                    : The.Mummy.1932.1080p.BluRay.REMUX.AVC.DTS-HD.MA.2.0-FGT
  123. Language                                 : Spanish
  124. Default                                  : No
  125. Forced                                   : No
  126. Audio #6
  127. ID                                       : 7
  128. Format                                   : AC-3
  129. Format/Info                              : Audio Coding 3
  130. Commercial name                          : Dolby Digital
  131. Codec ID                                 : A_AC3
  132. Duration                                 : 1 h 13 min
  133. Bit rate mode                            : Constant
  134. Bit rate                                 : 192 kb/s
  135. Channel(s)                               : 2 channels
  136. Channel layout                           : L R
  137. Sampling rate                            : 48.0 kHz
  138. Frame rate                               : 31.250 FPS (1536 SPF)
  139. Bit depth                                : 16 bits
  140. Compression mode                         : Lossy
  141. Stream size                              : 100 MiB (1%)
  142. Title                                    : The.Mummy.1932.1080p.BluRay.REMUX.AVC.DTS-HD.MA.2.0-FGT
  143. Language                                 : English
  144. Service kind                             : Complete Main
  145. Default                                  : No
  146. Forced                                   : No
  147. Audio #7
  148. ID                                       : 8
  149. Format                                   : AC-3
  150. Format/Info                              : Audio Coding 3
  151. Commercial name                          : Dolby Digital
  152. Codec ID                                 : A_AC3
  153. Duration                                 : 1 h 13 min
  154. Bit rate mode                            : Constant
  155. Bit rate                                 : 192 kb/s
  156. Channel(s)                               : 2 channels
  157. Channel layout                           : L R
  158. Sampling rate                            : 48.0 kHz
  159. Frame rate                               : 31.250 FPS (1536 SPF)
  160. Bit depth                                : 16 bits
  161. Compression mode                         : Lossy
  162. Stream size                              : 100 MiB (1%)
  163. Title                                    : The.Mummy.1932.1080p.BluRay.REMUX.AVC.DTS-HD.MA.2.0-FGT
  164. Language                                 : English
  165. Service kind                             : Complete Main
  166. Default                                  : No
  167. Forced                                   : No
  168. Text #1
  169. ID                                       : 9
  170. Format                                   : PGS
  171. Muxing mode                              : zlib
  172. Codec ID                                 : S_HDMV/PGS
  173. Codec ID/Info                            : Picture based subtitle format used on BDs/HD-DVDs
  174. Duration                                 : 1 h 10 min
  175. Bit rate                                 : 34.2 kb/s
  176. Count of elements                        : 1470
  177. Stream size                              : 17.2 MiB (0%)
  178. Language                                 : English
  179. Default                                  : Yes
  180. Forced                                   : No
  181. Text #2
  182. ID                                       : 10
  183. Format                                   : PGS
  184. Muxing mode                              : zlib
  185. Codec ID                                 : S_HDMV/PGS
  186. Codec ID/Info                            : Picture based subtitle format used on BDs/HD-DVDs
  187. Duration                                 : 1 h 12 min
  188. Bit rate                                 : 28.9 kb/s
  189. Count of elements                        : 1230
  190. Stream size                              : 14.9 MiB (0%)
  191. Language                                 : French
  192. Default                                  : No
  193. Forced                                   : No
  194. Text #3
  195. ID                                       : 11
  196. Format                                   : PGS
  197. Muxing mode                              : zlib
  198. Codec ID                                 : S_HDMV/PGS
  199. Codec ID/Info                            : Picture based subtitle format used on BDs/HD-DVDs
  200. Duration                                 : 1 h 12 min
  201. Bit rate                                 : 29.6 kb/s
  202. Count of elements                        : 1224
  203. Stream size                              : 15.2 MiB (0%)
  204. Language                                 : Italian
  205. Default                                  : No
  206. Forced                                   : No
  207. Text #4
  208. ID                                       : 12
  209. Format                                   : PGS
  210. Muxing mode                              : zlib
  211. Codec ID                                 : S_HDMV/PGS
  212. Codec ID/Info                            : Picture based subtitle format used on BDs/HD-DVDs
  213. Duration                                 : 1 h 11 min
  214. Bit rate                                 : 30.7 kb/s
  215. Count of elements                        : 1222
  216. Stream size                              : 15.8 MiB (0%)
  217. Language                                 : German
  218. Default                                  : No
  219. Forced                                   : No
  220. Text #5
  221. ID                                       : 13
  222. Format                                   : PGS
  223. Muxing mode                              : zlib
  224. Codec ID                                 : S_HDMV/PGS
  225. Codec ID/Info                            : Picture based subtitle format used on BDs/HD-DVDs
  226. Duration                                 : 1 h 12 min
  227. Bit rate                                 : 29.0 kb/s
  228. Count of elements                        : 1228
  229. Stream size                              : 14.9 MiB (0%)
  230. Language                                 : Spanish
  231. Default                                  : No
  232. Forced                                   : No
  233. Text #6
  234. ID                                       : 14
  235. Format                                   : PGS
  236. Muxing mode                              : zlib
  237. Codec ID                                 : S_HDMV/PGS
  238. Codec ID/Info                            : Picture based subtitle format used on BDs/HD-DVDs
  239. Duration                                 : 1 h 12 min
  240. Bit rate                                 : 29.1 kb/s
  241. Count of elements                        : 1226
  242. Stream size                              : 15.0 MiB (0%)
  243. Language                                 : Danish
  244. Default                                  : No
  245. Forced                                   : No
  246. Text #7
  247. ID                                       : 15
  248. Format                                   : PGS
  249. Muxing mode                              : zlib
  250. Codec ID                                 : S_HDMV/PGS
  251. Codec ID/Info                            : Picture based subtitle format used on BDs/HD-DVDs
  252. Duration                                 : 1 h 12 min
  253. Bit rate                                 : 30.5 kb/s
  254. Count of elements                        : 1318
  255. Stream size                              : 15.7 MiB (0%)
  256. Language                                 : Finnish
  257. Default                                  : No
  258. Forced                                   : No
  259. Text #8
  260. ID                                       : 16
  261. Format                                   : PGS
  262. Muxing mode                              : zlib
  263. Codec ID                                 : S_HDMV/PGS
  264. Codec ID/Info                            : Picture based subtitle format used on BDs/HD-DVDs
  265. Duration                                 : 1 h 12 min
  266. Bit rate                                 : 28.8 kb/s
  267. Count of elements                        : 1226
  268. Stream size                              : 14.9 MiB (0%)
  269. Language                                 : Norwegian
  270. Default                                  : No
  271. Forced                                   : No
  272. Text #9
  273. ID                                       : 17
  274. Format                                   : PGS
  275. Muxing mode                              : zlib
  276. Codec ID                                 : S_HDMV/PGS
  277. Codec ID/Info                            : Picture based subtitle format used on BDs/HD-DVDs
  278. Duration                                 : 1 h 12 min
  279. Bit rate                                 : 29.2 kb/s
  280. Count of elements                        : 1224
  281. Stream size                              : 15.1 MiB (0%)
  282. Language                                 : Swedish
  283. Default                                  : No
  284. Forced                                   : No
  285. Text #10
  286. ID                                       : 18
  287. Format                                   : PGS
  288. Muxing mode                              : zlib
  289. Codec ID                                 : S_HDMV/PGS
  290. Codec ID/Info                            : Picture based subtitle format used on BDs/HD-DVDs
  291. Duration                                 : 1 h 12 min
  292. Bit rate                                 : 84.5 kb/s
  293. Count of elements                        : 2681
  294. Stream size                              : 44.1 MiB (0%)
  295. Language                                 : English
  296. Default                                  : No
  297. Forced                                   : No
  298. Text #11
  299. ID                                       : 19
  300. Format                                   : PGS
  301. Muxing mode                              : zlib
  302. Codec ID                                 : S_HDMV/PGS
  303. Codec ID/Info                            : Picture based subtitle format used on BDs/HD-DVDs
  304. Duration                                 : 1 h 12 min
  305. Bit rate                                 : 72.5 kb/s
  306. Count of elements                        : 2683
  307. Stream size                              : 37.8 MiB (0%)
  308. Language                                 : French
  309. Default                                  : No
  310. Forced                                   : No
  311. Text #12
  312. ID                                       : 20
  313. Format                                   : PGS
  314. Muxing mode                              : zlib
  315. Codec ID                                 : S_HDMV/PGS
  316. Codec ID/Info                            : Picture based subtitle format used on BDs/HD-DVDs
  317. Duration                                 : 1 h 12 min
  318. Bit rate                                 : 73.3 kb/s
  319. Count of elements                        : 2683
  320. Stream size                              : 38.3 MiB (0%)
  321. Language                                 : Italian
  322. Default                                  : No
  323. Forced                                   : No
  324. Text #13
  325. ID                                       : 21
  326. Format                                   : PGS
  327. Muxing mode                              : zlib
  328. Codec ID                                 : S_HDMV/PGS
  329. Codec ID/Info                            : Picture based subtitle format used on BDs/HD-DVDs
  330. Duration                                 : 1 h 12 min
  331. Bit rate                                 : 80.7 kb/s
  332. Count of elements                        : 2683
  333. Stream size                              : 42.1 MiB (0%)
  334. Language                                 : German
  335. Default                                  : No
  336. Forced                                   : No
  337. Text #14
  338. ID                                       : 22
  339. Format                                   : PGS
  340. Muxing mode                              : zlib
  341. Codec ID                                 : S_HDMV/PGS
  342. Codec ID/Info                            : Picture based subtitle format used on BDs/HD-DVDs
  343. Duration                                 : 1 h 12 min
  344. Bit rate                                 : 79.4 kb/s
  345. Count of elements                        : 2683
  346. Stream size                              : 41.4 MiB (0%)
  347. Language                                 : Spanish
  348. Default                                  : No
  349. Forced                                   : No
  350. Text #15
  351. ID                                       : 23
  352. Format                                   : PGS
  353. Muxing mode                              : zlib
  354. Codec ID                                 : S_HDMV/PGS
  355. Codec ID/Info                            : Picture based subtitle format used on BDs/HD-DVDs
  356. Duration                                 : 1 h 12 min
  357. Bit rate                                 : 69.1 kb/s
  358. Count of elements                        : 2142
  359. Stream size                              : 36.0 MiB (0%)
  360. Language                                 : English
  361. Default                                  : No
  362. Forced                                   : No
  363. Text #16
  364. ID                                       : 24
  365. Format                                   : PGS
  366. Muxing mode                              : zlib
  367. Codec ID                                 : S_HDMV/PGS
  368. Codec ID/Info                            : Picture based subtitle format used on BDs/HD-DVDs
  369. Duration                                 : 1 h 13 min
  370. Bit rate                                 : 56.5 kb/s
  371. Count of elements                        : 1687
  372. Stream size                              : 29.6 MiB (0%)
  373. Language                                 : French
  374. Default                                  : No
  375. Forced                                   : No
  376. Text #17
  377. ID                                       : 25
  378. Format                                   : PGS
  379. Muxing mode                              : zlib
  380. Codec ID                                 : S_HDMV/PGS
  381. Codec ID/Info                            : Picture based subtitle format used on BDs/HD-DVDs
  382. Duration                                 : 1 h 13 min
  383. Bit rate                                 : 56.4 kb/s
  384. Count of elements                        : 1688
  385. Stream size                              : 29.5 MiB (0%)
  386. Language                                 : Italian
  387. Default                                  : No
  388. Forced                                   : No
  389. Text #18
  390. ID                                       : 26
  391. Format                                   : PGS
  392. Muxing mode                              : zlib
  393. Codec ID                                 : S_HDMV/PGS
  394. Codec ID/Info                            : Picture based subtitle format used on BDs/HD-DVDs
  395. Duration                                 : 1 h 13 min
  396. Bit rate                                 : 55.6 kb/s
  397. Count of elements                        : 1672
  398. Stream size                              : 29.1 MiB (0%)
  399. Language                                 : German
  400. Default                                  : No
  401. Forced                                   : No
  402. Text #19
  403. ID                                       : 27
  404. Format                                   : PGS
  405. Muxing mode                              : zlib
  406. Codec ID                                 : S_HDMV/PGS
  407. Codec ID/Info                            : Picture based subtitle format used on BDs/HD-DVDs
  408. Duration                                 : 1 h 13 min
  409. Bit rate                                 : 54.4 kb/s
  410. Count of elements                        : 1688
  411. Stream size                              : 28.4 MiB (0%)
  412. Language                                 : Spanish
  413. Default                                  : No
  414. Forced                                   : No
  415. Text #20
  416. ID                                       : 28
  417. Format                                   : PGS
  418. Muxing mode                              : zlib
  419. Codec ID                                 : S_HDMV/PGS
  420. Codec ID/Info                            : Picture based subtitle format used on BDs/HD-DVDs
  421. Duration                                 : 1 h 11 min
  422. Bit rate                                 : 675 b/s
  423. Count of elements                        : 26
  424. Stream size                              : 352 KiB (0%)
  425. Language                                 : French
  426. Default                                  : No
  427. Forced                                   : No
  428. Text #21
  429. ID                                       : 29
  430. Format                                   : PGS
  431. Muxing mode                              : zlib
  432. Codec ID                                 : S_HDMV/PGS
  433. Codec ID/Info                            : Picture based subtitle format used on BDs/HD-DVDs
  434. Duration                                 : 1 h 11 min
  435. Bit rate                                 : 723 b/s
  436. Count of elements                        : 24
  437. Stream size                              : 377 KiB (0%)
  438. Language                                 : Italian
  439. Default                                  : No
  440. Forced                                   : No
  441. Text #22
  442. ID                                       : 30
  443. Format                                   : PGS
  444. Muxing mode                              : zlib
  445. Codec ID                                 : S_HDMV/PGS
  446. Codec ID/Info                            : Picture based subtitle format used on BDs/HD-DVDs
  447. Duration                                 : 1 h 11 min
  448. Bit rate                                 : 1 044 b/s
  449. Count of elements                        : 36
  450. Stream size                              : 549 KiB (0%)
  451. Language                                 : German
  452. Default                                  : No
  453. Forced                                   : No
  454. Text #23
  455. ID                                       : 31
  456. Format                                   : PGS
  457. Muxing mode                              : zlib
  458. Codec ID                                 : S_HDMV/PGS
  459. Codec ID/Info                            : Picture based subtitle format used on BDs/HD-DVDs
  460. Duration                                 : 55 min 52 s
  461. Bit rate                                 : 310 b/s
  462. Count of elements                        : 10
  463. Stream size                              : 127 KiB (0%)
  464. Language                                 : Spanish
  465. Default                                  : No
  466. Forced                                   : No
  467. Menu
  468. 00:00:00.000                             : en:Chapter 01
  469. 00:01:34.135                             : en:Chapter 02
  470. 00:03:08.104                             : en:Chapter 03
  471. 00:12:05.975                             : en:Chapter 04
  472. 00:13:45.199                             : en:Chapter 05
  473. 00:15:37.478                             : en:Chapter 06
  474. 00:18:33.654                             : en:Chapter 07
  475. 00:26:00.392                             : en:Chapter 08
  476. 00:29:46.117                             : en:Chapter 09
  477. 00:34:56.677                             : en:Chapter 10
  478. 00:42:27.795                             : en:Chapter 11
  479. 00:45:45.242                             : en:Chapter 12
  480. 00:47:52.870                             : en:Chapter 13
  481. 00:55:02.340                             : en:Chapter 14
  482. 01:00:18.031                             : en:Chapter 15
  483. 01:05:57.745                             : en:Chapter 16
  484. 01:10:50.329                             : en:Chapter 17
  485. 01:12:47.446                             : en:Chapter 18
复制代码






                                       
                                       

                                       
                                       
                                       




回复

使用道具 举报

懒得打字嘛,点击右侧快捷回复 【右侧内容,后台自定义】
您需要登录后才可以回帖 登录 | 立即加入

本版积分规则

Archiver|小黑屋| 蓝光电影网 |网站地图

Copyright © 2021 Comsenz Inc. Powered by 蓝光电影网

蓝光电影网

本站内容由用户自主分享和转载自互联网,转载目的在于传递更多信息,并不代表本网赞同其观点和对其真实性负责。

如有侵权、违反国家法律政策行为,请联系我们,我们会第一时间及时清除和处理!

举报反馈邮箱:[email protected]

快速回复 返回顶部 返回列表