找回密码

蓝光电影网

查看: 47|回复: 0

[喜剧] 鸿运当头 Opportunity.Knocks.1990.1080p.BluRay.REMUX.AVC.DTS-HD.MA.2.0-FGT 18.61GB

[复制链接]
蓝光币
730
发表于 2019-6-26 21:32:33 | 显示全部楼层 |阅读模式


◎译  名 隆运当头
◎片  名 Opportunity Knocks
◎年  代 1990
◎产  地 美国
◎类  别 笑剧
◎语  言 英语
◎上映日期 1990-03-30
◎IMDb评分  6.0/10 from 2614 users
◎IMDb链接  http://www.imdb.com/title/tt0100301
◎豆瓣评分 0/10 from 0 users
◎豆瓣链接 https://movie.douban.com/subject/1299424/
◎片  长 103 分钟
◎导  演 唐纳德 皮特里 (Donald Petrie)
◎编  剧 Mitchel Katlin / Nat Bernstein
◎主  演 达纳·卡维 Dana Carvey
      罗伯特·劳吉亚 Robert Loggia
      托德·格拉夫 Todd Graff
      朱丽娅·坎贝尔 Julia Campbell
      米罗·奥西 Milo O'Shea
      James Tolkan
      多丽丝·布莱克 Doris Belack
      Sally Gracie
      Mike Bacarella
      John M. Watson Sr.
      Beatrice Fredman
      Thomas McElroy
      Jack McLaughlin-Gray
      Gene Honda
      Del Close
      Michael Oppenheimer
      Paul Greatbatch
      Sarajane Avidon
      Mindy Bell
      Richard Steven Mann
      Ron Max
      Kent Logsdon
      Jed Mills
      Michelle Johnston
      比尔·布莱特肖 Bill Bradshaw
      John Cothran
      Tal Galomb
      James Hassett
      Mark Hutter
      Joshua Livingstone
      Jill Shellabarger
      Adam Jason Weiss
      罗娜·雷弗 Lorna Raver
      Michelle Quigley
      朱迪斯·斯科特 Judith Scott
      Rebecca Cagen
      Don Cagen
      Paul Dallas
      Randy Harrah
      Peter Hennes
      Pennington McGee
      Steven Zoloto
      Cathy Carlson
      Jeff Dlugolecki
      Jeff Grafton
      Robert Minkoff
      Jock L. Schloss
      Jennifer Scott
      Matt Socia
      Gail Trotter

◎标  签 笑剧 | 美国 | 恋爱 | 1990 | SNL | 熟悉自己,改变自己 | 英語片 | 愛情Romance
◎简  介  
  三流快嘴艾迪和他装腔作势的夥伴路闯入芝加哥近郊的一幢奢华别墅,却让屋主的怙恃误以为是衡宇观察员,艾迪将错就错,假扮美国东部一流大学同盟身世的财政专家,而被屋主父亲延揽入他公司,当起副总裁,但是此凭藉生花妙嘴而得以一步登天的小伙子,碰到了总裁美丽的女儿,三寸不烂之舌却不管用了。
  1. Video
  2. ID                                       : 1
  3. Format                                   : AVC
  4. Format/Info                              : Advanced Video Codec
  5. Format profile                           : [email protected]
  6. Format settings                          : CABAC / 4 Ref Frames
  7. Format settings, CABAC                   : Yes
  8. Format settings, ReFrames                : 4 frames
  9. Codec ID                                 : V_MPEG4/ISO/AVC
  10. Duration                                 : 1 h 41 min
  11. Bit rate mode                            : Variable
  12. Bit rate                                 : 24.6 Mb/s
  13. Maximum bit rate                         : 30.0 Mb/s
  14. Width                                    : 1 920 pixels
  15. Height                                   : 1 080 pixels
  16. Display aspect ratio                     : 16:9
  17. Frame rate mode                          : Constant
  18. Frame rate                               : 23.976 (24000/1001) FPS
  19. Standard                                 : NTSC
  20. Color space                              : YUV
  21. Chroma subsampling                       : 4:2:0
  22. Bit depth                                : 8 bits
  23. Scan type                                : Progressive
  24. Bits/(Pixel*Frame)                       : 0.495
  25. Stream size                              : 17.4 GiB (93%)
  26. Title                                    : Opportunity.Knocks.1990.1080p.BluRay.REMUX.AVC.DTS-HD.MA.2.0-FGT
  27. Language                                 : English
  28. Default                                  : No
  29. Forced                                   : No
  30. Color range                              : Limited
  31. Color primaries                          : BT.709
  32. Transfer characteristics                 : BT.709
  33. Matrix coefficients                      : BT.709
  34. Audio
  35. ID                                       : 2
  36. Format                                   : DTS XLL
  37. Format/Info                              : Digital Theater Systems
  38. Commercial name                          : DTS-HD Master Audio
  39. Codec ID                                 : A_DTS
  40. Duration                                 : 1 h 41 min
  41. Bit rate mode                            : Variable
  42. Bit rate                                 : 1 736 kb/s
  43. Channel(s)                               : 2 channels
  44. Channel layout                           : L R
  45. Sampling rate                            : 48.0 kHz
  46. Frame rate                               : 93.750 FPS (512 SPF)
  47. Bit depth                                : 24 bits
  48. Compression mode                         : Lossless
  49. Stream size                              : 1.23 GiB (7%)
  50. Title                                    : Opportunity.Knocks.1990.1080p.BluRay.REMUX.AVC.DTS-HD.MA.2.0-FGT
  51. Language                                 : English
  52. Default                                  : Yes
  53. Forced                                   : No
  54. Text
  55. ID                                       : 3
  56. Format                                   : PGS
  57. Muxing mode                              : zlib
  58. Codec ID                                 : S_HDMV/PGS
  59. Codec ID/Info                            : Picture based subtitle format used on BDs/HD-DVDs
  60. Duration                                 : 1 h 41 min
  61. Bit rate                                 : 30.7 kb/s
  62. Count of elements                        : 3075
  63. Stream size                              : 22.2 MiB (0%)
  64. Title                                    : English-PGS
  65. Language                                 : English
  66. Default                                  : Yes
  67. Forced                                   : No
  68. Menu
  69. 00:00:00.000                             : en:Chapter 01
  70. 00:05:45.136                             : en:Chapter 02
  71. 00:12:55.608                             : en:Chapter 03
  72. 00:19:39.636                             : en:Chapter 04
  73. 00:27:50.835                             : en:Chapter 05
  74. 00:36:02.285                             : en:Chapter 06
  75. 00:43:39.575                             : en:Chapter 07
  76. 00:52:15.715                             : en:Chapter 08
  77. 01:02:04.804                             : en:Chapter 09
  78. 01:10:57.628                             : en:Chapter 10
  79. 01:25:19.072                             : en:Chapter 11
  80. 01:37:13.494                             : en:Chapter 12
复制代码






                                       
                                       

                                       
                                       
                                       




回复

使用道具 举报

懒得打字嘛,点击右侧快捷回复 【右侧内容,后台自定义】
您需要登录后才可以回帖 登录 | 立即加入

本版积分规则

Archiver|小黑屋| 蓝光电影网 |网站地图

Copyright © 2021 Comsenz Inc. Powered by 蓝光电影网

蓝光电影网

本站内容由用户自主分享和转载自互联网,转载目的在于传递更多信息,并不代表本网赞同其观点和对其真实性负责。

如有侵权、违反国家法律政策行为,请联系我们,我们会第一时间及时清除和处理!

举报反馈邮箱:[email protected]

快速回复 返回顶部 返回列表