找回密码

蓝光电影网

查看: 61|回复: 0

[动作] 兽王伏魔/万兽之王 The.Beastmaster.1982.REMASTERED.1080p.BluRay.REMUX.AVC.DTS-HD.MA.5.1-FGT 34.36GB

[复制链接]
蓝光币
515
发表于 2020-12-18 10:17:05 | 显示全部楼层 |阅读模式
[img][/img]

◎译  名 兽王伏魔/万兽之王/魔诫奇兵
◎片  名 The Beastmaster
◎年  代 1982
◎产  地 美国,西德
◎类  别 行动 / 奇异 / 冒险
◎语  言 英语
◎上映日期 1982-08-20
◎IMDb评分  6.2/10 from 20393 users
◎IMDb链接  https://www.imdb.com/title/tt0083630/
◎豆瓣评分 6.9/10 from 106 users
◎豆瓣链接 https://movie.douban.com/subject/1298314/
◎片  长 118 分钟
◎导  演 唐·柯斯卡莱利 Don Coscarelli
◎编  剧 Paul Pepperman / 唐·柯斯卡莱利 Don Coscarelli / 安德丽·诺顿 Andre Norton
◎主  演 马克·辛格 Marc Singer
       坦娅·罗伯茨 Tanya Roberts
       雷普·汤恩 Rip Torn
       Ralph Strait
       Monty L. Simons
       Jeremy Whelan
       约翰·阿莫斯 John Amos
       Bruce Paul Barbour
       埃迪·多诺 Eddy Donno
       弗雷迪·海斯 Freddie Hice
       保罗·雷诺兹 Paul Reynolds
       Larry Randles
       万娜·邦塔 Vanna Bonta
       Janet DeMay
       Diamond Farnsworth
       比利·汉克·胡克 Billy Hank Hooker
       本·哈默 Ben Hammer
       Chuck Hicks
       珍妮特·琼斯 Janet Jones
       比利·詹 Billy Jayne
       Joshua Milrad
       罗德·卢米斯 Rod Loomis
       Tommy J. Huff
◎标  签 电影 | 奇异 | 美国电影 | 冒险 | 魔幻 | 美国 | 行动 | 1982
◎简  介


  上古洪荒时代,传播著奇异的冒险故事。“万兽王”达尔即是这个时代的豪杰。
  
  达尔诞生皇室,却被巫师亚刚追杀,漂泊官方。他成人未几,养父就被野生番杀死,但他也发现了他能与动物交换的才能。
  
  同时,他必须阻止巫师亚刚拿到“布朗斯之眼”。由于一 旦亚刚拿到此颗宝石,邪魔恶神布朗斯将重返人世,助亚刚王为恶,苛虐生灵。为了获得布朗斯的魔力,亚刚绑架了达尔的亲兄弟——泰尔王,兄弟情深的达尔誓词救回兄弟,为父报仇,他率领著忠心的动物军队以及智囊塞斯向亚刚王宣战。达尔将和这位奥秘没测的魔头刀锋相对决一死战。
  1. Video
  2. ID                                       : 1
  3. ID in the original source medium         : 4113 (0x1011)
  4. Format                                   : AVC
  5. Format/Info                              : Advanced Video Codec
  6. Format profile                           : [email protected]
  7. Format settings                          : CABAC / 3 Ref Frames
  8. Format settings, CABAC                   : Yes
  9. Format settings, Reference frames        : 3 frames
  10. Codec ID                                 : V_MPEG4/ISO/AVC
  11. Duration                                 : 1 h 58 min
  12. Bit rate mode                            : Variable
  13. Bit rate                                 : 35.0 Mb/s
  14. Maximum bit rate                         : 40.0 Mb/s
  15. Width                                    : 1 920 pixels
  16. Height                                   : 1 080 pixels
  17. Display aspect ratio                     : 16:9
  18. Frame rate mode                          : Constant
  19. Frame rate                               : 23.976 (24000/1001/189150) FPS
  20. Standard                                 : NTSC
  21. Color space                              : YUV
  22. Chroma subsampling                       : 4:2:0
  23. Bit depth                                : 8 bits
  24. Scan type                                : Progressive
  25. Bits/(Pixel*Frame)                       : 0.704
  26. Stream size                              : 28.8 GiB (84%)
  27. Writing library                          : x264pro - Adobe CS Exporter Plug-in
  28. Encoding settings                        : cabac=1 / ref=4 / deblock=1:-1:-1 / analyse=0x3:0x133 / me=umh / subme=10 / psy=1 / psy_rd=1.00:0.15 / mixed_ref=1 / me_range=24 / chroma_me=1 / trellis=2 / 8x8dct=1 / cqm=0 / deadzone=21,11 / fast_pskip=1 / chroma_qp_offset=-3 / threads=12 / lookahead_threads=2 / sliced_threads=0 / slices=4 / nr=0 / decimate=1 / interlaced=0 / bluray_compat=1 / constrained_intra=0 / bframes=3 / b_pyramid=1 / b_adapt=2 / b_bias=0 / direct=3 / weightb=1 / open_gop=0 / weightp=1 / keyint=24 / keyint_min=1 / scenecut=40 / intra_refresh=0 / rc_lookahead=24 / rc=2pass / mbtree=1 / bitrate=35000 / ratetol=1.0 / qcomp=0.60 / qpmin=0 / qpmax=69 / qpstep=4 / cplxblur=20.0 / qblur=0.5 / vbv_maxrate=40000 / vbv_bufsize=30000 / nal_hrd=vbr / ip_ratio=1.40 / aq=1:1.00
  29. Language                                 : English
  30. Default                                  : No
  31. Forced                                   : No
  32. Color range                              : Limited
  33. Color primaries                          : BT.709
  34. Transfer characteristics                 : BT.709
  35. Matrix coefficients                      : BT.709
  36. Original source medium                   : Blu-ray
  37. Audio #1
  38. ID                                       : 2
  39. ID in the original source medium         : 4353 (0x1101)
  40. Format                                   : DTS XLL
  41. Format/Info                              : Digital Theater Systems
  42. Commercial name                          : DTS-HD Master Audio
  43. Codec ID                                 : A_DTS
  44. Duration                                 : 1 h 58 min
  45. Bit rate mode                            : Variable
  46. Bit rate                                 : 3 516 kb/s
  47. Channel(s)                               : 6 channels
  48. Channel layout                           : C L R Ls Rs LFE
  49. Sampling rate                            : 48.0 kHz
  50. Frame rate                               : 93.750 FPS (512 SPF)
  51. Bit depth                                : 24 bits
  52. Compression mode                         : Lossless
  53. Stream size                              : 2.91 GiB (8%)
  54. Title                                    : DTS-HD MA 5.1
  55. Language                                 : English
  56. Default                                  : Yes
  57. Forced                                   : No
  58. Original source medium                   : Blu-ray
  59. Audio #2
  60. ID                                       : 3
  61. Format                                   : AC-3
  62. Format/Info                              : Audio Coding 3
  63. Commercial name                          : Dolby Digital
  64. Codec ID                                 : A_AC3
  65. Duration                                 : 1 h 58 min
  66. Bit rate mode                            : Constant
  67. Bit rate                                 : 640 kb/s
  68. Channel(s)                               : 6 channels
  69. Channel layout                           : L R C LFE Ls Rs
  70. Sampling rate                            : 48.0 kHz
  71. Frame rate                               : 31.250 FPS (1536 SPF)
  72. Compression mode                         : Lossy
  73. Stream size                              : 542 MiB (2%)
  74. Title                                    : DD 5.1
  75. Language                                 : English
  76. Service kind                             : Complete Main
  77. Default                                  : No
  78. Forced                                   : No
  79. Audio #3
  80. ID                                       : 4
  81. ID in the original source medium         : 4352 (0x1100)
  82. Format                                   : DTS XLL
  83. Format/Info                              : Digital Theater Systems
  84. Commercial name                          : DTS-HD Master Audio
  85. Codec ID                                 : A_DTS
  86. Duration                                 : 1 h 58 min
  87. Bit rate mode                            : Variable
  88. Bit rate                                 : 2 126 kb/s
  89. Channel(s)                               : 2 channels
  90. Channel layout                           : L R
  91. Sampling rate                            : 48.0 kHz
  92. Frame rate                               : 93.750 FPS (512 SPF)
  93. Bit depth                                : 24 bits
  94. Compression mode                         : Lossless
  95. Stream size                              : 1.76 GiB (5%)
  96. Title                                    : DTS-HD MA 2.0
  97. Language                                 : English
  98. Default                                  : No
  99. Forced                                   : No
  100. Original source medium                   : Blu-ray
  101. Audio #4
  102. ID                                       : 5
  103. ID in the original source medium         : 4354 (0x1102)
  104. Format                                   : AC-3
  105. Format/Info                              : Audio Coding 3
  106. Commercial name                          : Dolby Digital
  107. Codec ID                                 : A_AC3
  108. Duration                                 : 1 h 58 min
  109. Bit rate mode                            : Constant
  110. Bit rate                                 : 192 kb/s
  111. Channel(s)                               : 2 channels
  112. Channel layout                           : L R
  113. Sampling rate                            : 48.0 kHz
  114. Frame rate                               : 31.250 FPS (1536 SPF)
  115. Compression mode                         : Lossy
  116. Stream size                              : 163 MiB (0%)
  117. Title                                    : DD 2.0
  118. Language                                 : English
  119. Service kind                             : Complete Main
  120. Default                                  : No
  121. Forced                                   : No
  122. Original source medium                   : Blu-ray
  123. Audio #5
  124. ID                                       : 6
  125. ID in the original source medium         : 4355 (0x1103)
  126. Format                                   : AC-3
  127. Format/Info                              : Audio Coding 3
  128. Commercial name                          : Dolby Digital
  129. Codec ID                                 : A_AC3
  130. Duration                                 : 1 h 58 min
  131. Bit rate mode                            : Constant
  132. Bit rate                                 : 192 kb/s
  133. Channel(s)                               : 2 channels
  134. Channel layout                           : L R
  135. Sampling rate                            : 48.0 kHz
  136. Frame rate                               : 31.250 FPS (1536 SPF)
  137. Compression mode                         : Lossy
  138. Stream size                              : 163 MiB (0%)
  139. Title                                    : DD 2.0
  140. Language                                 : English
  141. Service kind                             : Complete Main
  142. Default                                  : No
  143. Forced                                   : No
  144. Original source medium                   : Blu-ray
  145. Text #1
  146. ID                                       : 7
  147. Format                                   : UTF-8
  148. Codec ID                                 : S_TEXT/UTF8
  149. Codec ID/Info                            : UTF-8 Plain Text
  150. Duration                                 : 1 h 50 min
  151. Bit rate                                 : 10 b/s
  152. Count of elements                        : 435
  153. Stream size                              : 8.14 KiB (0%)
  154. Title                                    : English-SRT
  155. Language                                 : English
  156. Default                                  : Yes
  157. Forced                                   : No
  158. Text #2
  159. ID                                       : 8
  160. ID in the original source medium         : 4608 (0x1200)
  161. Format                                   : PGS
  162. Muxing mode                              : zlib
  163. Codec ID                                 : S_HDMV/PGS
  164. Codec ID/Info                            : Picture based subtitle format used on BDs/HD-DVDs
  165. Duration                                 : 1 h 55 min
  166. Bit rate                                 : 11.0 kb/s
  167. Count of elements                        : 2057
  168. Stream size                              : 9.10 MiB (0%)
  169. Title                                    : English-PGS
  170. Language                                 : English
  171. Default                                  : No
  172. Forced                                   : No
  173. Original source medium                   : Blu-ray
  174. Menu
  175. 00:00:00.000                             : en:Chapter 01
  176. 00:22:02.529                             : en:Chapter 02
  177. 00:43:14.174                             : en:Chapter 03
  178. 01:03:40.399                             : en:Chapter 04
  179. 01:22:04.210                             : en:Chapter 05
  180. 01:41:54.650                             : en:Chapter 06
复制代码



                                       
                                       

                                       
                                       
                                       




回复

使用道具 举报

懒得打字嘛,点击右侧快捷回复 【右侧内容,后台自定义】
您需要登录后才可以回帖 登录 | 立即加入

本版积分规则

Archiver|小黑屋| 蓝光电影网 |网站地图

Copyright © 2021 Comsenz Inc. Powered by 蓝光电影网

蓝光电影网

本站内容由用户自主分享和转载自互联网,转载目的在于传递更多信息,并不代表本网赞同其观点和对其真实性负责。

如有侵权、违反国家法律政策行为,请联系我们,我们会第一时间及时清除和处理!

举报反馈邮箱:[email protected]

快速回复 返回顶部 返回列表