找回密码

蓝光电影网

查看: 14|回复: 0

[喜剧] 海滩流浪汉/海滨狂欢 The.Beach.Bum.2019.1080p.BluRay.REMUX.AVC.DTS-HD.MA.5.1-FGT 16.37GB

[复制链接]
蓝光币
515
发表于 2019-6-26 18:44:43 | 显示全部楼层 |阅读模式


◎译  名 海滩流浪汉 / 海滨狂欢
◎片  名 The Beach Bum
◎年  代 2019
◎产  地 瑞士 / 英国 / 法国 / 美国
◎类  别 笑剧
◎语  言 英语 / 西班牙语
◎上映日期 2019-03-09(西南偏南电影节) / 2019-03-29(美国)
◎IMDb评分  6.2/10 from 3429 users
◎IMDb链接  http://www.imdb.com/title/tt6511932
◎豆瓣评分 6.6/10 from 80 users
◎豆瓣链接 https://movie.douban.com/subject/26970067/
◎片  长 95分钟
◎导  演 哈莫尼·科林 Harmony Korine
◎编  剧 哈莫尼·科林 Harmony Korine
◎主  演 马修·麦康纳 Matthew McConaughey
      史努比狗狗 Snoop Dogg
      艾拉·菲舍尔 Isla Fisher
      斯蒂芬妮娅·欧文 Stefania Owen
      马丁·劳伦斯 Martin Lawrence
      扎克·埃夫隆 Zac Efron
      乔纳·希尔 Jonah Hill
      杰里·阿斯科恩 Jerry Ascione
      吉米·巴菲特 Jimmy Buffett
      贝蒂·希金斯 Bertie Higgins
      瑞奇·迪亚兹 Ricky Diaz
      罗布·古德曼 Rob Goodman
      乔玛丽·佩顿 JoMarie Payton
      尼古拉斯·西蒙斯 Nicholas Simmons

◎标  签 美国 | 2019 | 笑剧 | 英国 | cannes | 瑞士 | SXSW | 法国
◎简  介  
  艾拉·菲舍尔加盟新片[海滩上的屁股],将与马修·麦康纳上演对手戏。该片由哈莫尼·科林自编自导,刊行权由Neon影业早些时辰在戛纳电影市场购得。麦康纳在片中饰演了一个时而叛逆又时而心爱的忘八,菲舍尔则饰演他的妻子。哈莫尼·科林别具小我特点的影片画风,畴前作[春假]即可见一斑。
  1. Video
  2. ID                                       : 1
  3. Format                                   : AVC
  4. Format/Info                              : Advanced Video Codec
  5. Format profile                           : [email protected]
  6. Format settings                          : CABAC / 4 Ref Frames
  7. Format settings, CABAC                   : Yes
  8. Format settings, ReFrames                : 4 frames
  9. Codec ID                                 : V_MPEG4/ISO/AVC
  10. Duration                                 : 1 h 34 min
  11. Bit rate mode                            : Variable
  12. Bit rate                                 : 20.9 Mb/s
  13. Maximum bit rate                         : 36.0 Mb/s
  14. Width                                    : 1 920 pixels
  15. Height                                   : 1 080 pixels
  16. Display aspect ratio                     : 16:9
  17. Frame rate mode                          : Constant
  18. Frame rate                               : 23.976 (24000/1001) FPS
  19. Color space                              : YUV
  20. Chroma subsampling                       : 4:2:0
  21. Bit depth                                : 8 bits
  22. Scan type                                : Progressive
  23. Bits/(Pixel*Frame)                       : 0.421
  24. Stream size                              : 13.8 GiB (85%)
  25. Title                                    : The.Beach.Bum.2019.1080p.BluRay.REMUX.AVC.DTS-HD.MA.5.1-FGT
  26. Language                                 : English
  27. Default                                  : No
  28. Forced                                   : No
  29. Audio
  30. ID                                       : 2
  31. Format                                   : DTS XLL
  32. Format/Info                              : Digital Theater Systems
  33. Commercial name                          : DTS-HD Master Audio
  34. Codec ID                                 : A_DTS
  35. Duration                                 : 1 h 34 min
  36. Bit rate mode                            : Variable
  37. Bit rate                                 : 3 812 kb/s
  38. Channel(s)                               : 6 channels
  39. Channel layout                           : C L R Ls Rs LFE
  40. Sampling rate                            : 48.0 kHz
  41. Frame rate                               : 93.750 FPS (512 SPF)
  42. Bit depth                                : 24 bits
  43. Compression mode                         : Lossless
  44. Stream size                              : 2.52 GiB (15%)
  45. Title                                    : The.Beach.Bum.2019.1080p.BluRay.REMUX.AVC.DTS-HD.MA.5.1-FGT
  46. Language                                 : English
  47. Default                                  : Yes
  48. Forced                                   : No
  49. Text #1
  50. ID                                       : 3
  51. Format                                   : UTF-8
  52. Codec ID                                 : S_TEXT/UTF8
  53. Codec ID/Info                            : UTF-8 Plain Text
  54. Duration                                 : 1 h 31 min
  55. Bit rate                                 : 84 b/s
  56. Count of elements                        : 1751
  57. Stream size                              : 56.8 KiB (0%)
  58. Title                                    : English-SRT
  59. Language                                 : English
  60. Default                                  : Yes
  61. Forced                                   : No
  62. Text #2
  63. ID                                       : 4
  64. Format                                   : PGS
  65. Muxing mode                              : zlib
  66. Codec ID                                 : S_HDMV/PGS
  67. Codec ID/Info                            : Picture based subtitle format used on BDs/HD-DVDs
  68. Duration                                 : 1 h 33 min
  69. Bit rate                                 : 44.4 kb/s
  70. Count of elements                        : 3947
  71. Stream size                              : 29.8 MiB (0%)
  72. Title                                    : English-PGS
  73. Language                                 : English
  74. Default                                  : No
  75. Forced                                   : No
  76. Menu
  77. 00:00:00.000                             : en:Chapter 01
  78. 00:09:30.570                             : en:Chapter 02
  79. 00:21:07.224                             : en:Chapter 03
  80. 00:31:56.998                             : en:Chapter 04
  81. 00:40:55.870                             : en:Chapter 05
  82. 00:51:46.770                             : en:Chapter 06
  83. 01:07:11.027                             : en:Chapter 07
  84. 01:29:03.087                             : en:Chapter 08
复制代码






                                       
                                       

                                       
                                       
                                       




回复

使用道具 举报

懒得打字嘛,点击右侧快捷回复 【右侧内容,后台自定义】
您需要登录后才可以回帖 登录 | 立即加入

本版积分规则

Archiver|小黑屋| 蓝光电影网 |网站地图

Copyright © 2021 Comsenz Inc. Powered by 蓝光电影网

蓝光电影网

本站内容由用户自主分享和转载自互联网,转载目的在于传递更多信息,并不代表本网赞同其观点和对其真实性负责。

如有侵权、违反国家法律政策行为,请联系我们,我们会第一时间及时清除和处理!

举报反馈邮箱:[email protected]

快速回复 返回顶部 返回列表