找回密码

蓝光电影网

查看: 15|回复: 0

[动作] 逃亡 Flukt.2012.NORWEGIAN.1080p.BluRay.x264.DTS-FGT 6.55GB

[复制链接]
蓝光币
515
发表于 2019-8-10 20:33:09 | 显示全部楼层 |阅读模式
[img]https://img1.doubanio.com/view/photo/l_ratio_poster/public/p1917964699.jpg[img]
◎译  名 流亡 / Escape
◎片  名 Flukt
◎年  代 2012
◎产  地 挪威
◎类  别 行动 / 惊悚 / 历史
◎语  言 挪威语
◎上映日期 2012-09-28(挪威)
◎IMDb评分  6.0/10 from 3841 users
◎IMDb链接  http://www.imdb.com/title/tt2076850
◎豆瓣评分 6.2/10 from 213 users
◎豆瓣链接 https://movie.douban.com/subject/6957172/
◎导  演 Roar Uthaug
◎编  剧 Thomas Moldestad
◎主  演 Ingrid Bols? Berdal
       Hallvard Holmen
       Bj?rn Moan

◎标  签 挪威 | 行动 | 惊悚 | 剧情 | 挪威电影 | 2012 | 犯罪 | 电影
◎简  介  
  14世纪,黑死病肆虐以来第十个年头,可骇绝症夺走挪威一半生齿,国家冷落,人丁零落。为了生存,有人铤而走险,干起杀盗劫掠的谋生。贫民家少女欣儿(Isabel Christine Andreasen 饰)随家人迁移异地,但在荒原山间遭到强盗攻击,怙恃、弟弟均被杀戮,欣儿则暂得人命,随女匪首戴格玛(英格丽德·波尔索·贝达尔 Ingrid Bols? Berdal 饰)回到营地。戴格玛只希望为心爱的女儿斐吉(Milla Olin 饰)找到一个如姐妹般的玩伴,但即使如此也改变不了欣儿被奴役、威胁和凌辱的命运。
  清楚了然自己的处境,欣儿必须想方想法逃走。在斐吉的帮助下,她们向密林之外逃去,而戴格玛及其凶神恶煞般的途中紧随厥后……
  1. Video
  2. ID                                       : 1
  3. Format                                   : AVC
  4. Format/Info                              : Advanced Video Codec
  5. Format profile                           : [email protected]
  6. Format settings                          : CABAC / 5 Ref Frames
  7. Format settings, CABAC                   : Yes
  8. Format settings, Reference frames        : 5 frames
  9. Codec ID                                 : V_MPEG4/ISO/AVC
  10. Duration                                 : 1 h 21 min
  11. Bit rate                                 : 9 975 kb/s
  12. Width                                    : 1 920 pixels
  13. Height                                   : 804 pixels
  14. Display aspect ratio                     : 2.40:1
  15. Frame rate mode                          : Constant
  16. Frame rate                               : 24.000 FPS
  17. Color space                              : YUV
  18. Chroma subsampling                       : 4:2:0
  19. Bit depth                                : 8 bits
  20. Scan type                                : Progressive
  21. Bits/(Pixel*Frame)                       : 0.269
  22. Stream size                              : 5.54 GiB (84%)
  23. Title                                    : Flukt.2012.NORWEGIAN.1080p.BluRay.x264.DTS-FGT
  24. Writing library                          : x264 core 129 r2230 1cffe9f
  25. Encoding settings                        : cabac=1 / ref=5 / deblock=1:-3:-3 / analyse=0x3:0x113 / me=umh / subme=7 / psy=1 / psy_rd=1.00:0.00 / mixed_ref=1 / me_range=16 / chroma_me=1 / trellis=1 / 8x8dct=1 / cqm=0 / deadzone=21,11 / fast_pskip=1 / chroma_qp_offset=-2 / threads=16 / lookahead_threads=2 / sliced_threads=0 / nr=0 / decimate=1 / interlaced=0 / bluray_compat=0 / constrained_intra=0 / bframes=3 / b_pyramid=2 / b_adapt=1 / b_bias=0 / direct=3 / weightb=1 / open_gop=0 / weightp=2 / keyint=240 / keyint_min=24 / scenecut=40 / intra_refresh=0 / rc_lookahead=50 / rc=abr / mbtree=1 / bitrate=9975 / ratetol=1.0 / qcomp=0.60 / qpmin=0 / qpmax=69 / qpstep=4 / ip_ratio=1.40 / aq=1:1.00
  26. Language                                 : English
  27. Default                                  : Yes
  28. Forced                                   : No
  29. Audio
  30. ID                                       : 2
  31. Format                                   : DTS
  32. Format/Info                              : Digital Theater Systems
  33. Codec ID                                 : A_DTS
  34. Duration                                 : 1 h 21 min
  35. Bit rate mode                            : Constant
  36. Bit rate                                 : 1 509 kb/s
  37. Channel(s)                               : 6 channels
  38. Channel layout                           : C L R Ls Rs LFE
  39. Sampling rate                            : 48.0 kHz
  40. Frame rate                               : 93.750 FPS (512 SPF)
  41. Bit depth                                : 24 bits
  42. Compression mode                         : Lossy
  43. Stream size                              : 881 MiB (13%)
  44. Title                                    : Flukt.2012.NORWEGIAN.1080p.BluRay.x264.DTS-FGT
  45. Language                                 : Norwegian
  46. Default                                  : Yes
  47. Forced                                   : No
  48. Text
  49. ID                                       : 3
  50. Format                                   : UTF-8
  51. Codec ID                                 : S_TEXT/UTF8
  52. Codec ID/Info                            : UTF-8 Plain Text
  53. Duration                                 : 1 h 14 min
  54. Bit rate                                 : 10 b/s
  55. Count of elements                        : 300
  56. Stream size                              : 5.89 KiB (0%)
  57. Language                                 : English
  58. Default                                  : Yes
  59. Forced                                   : No
  60. Menu
  61. 00:00:00.000                             : en:00:00:00.000
  62. 00:06:53.333                             : en:00:06:53.333
  63. 00:13:08.583                             : en:00:13:08.583
  64. 00:22:36.667                             : en:00:22:36.667
  65. 00:30:21.208                             : en:00:30:21.208
  66. 00:38:52.375                             : en:00:38:52.375
  67. 00:45:35.500                             : en:00:45:35.500
  68. 00:50:29.667                             : en:00:50:29.667
  69. 01:00:41.042                             : en:01:00:41.042
  70. 01:06:54.333                             : en:01:06:54.333
  71. 01:13:43.958                             : en:01:13:43.958
  72. 01:16:31.667                             : en:01:16:31.667
复制代码






                                       
                                       

                                       
                                       
                                       




回复

使用道具 举报

懒得打字嘛,点击右侧快捷回复 【右侧内容,后台自定义】
您需要登录后才可以回帖 登录 | 立即加入

本版积分规则

Archiver|小黑屋| 蓝光电影网 |网站地图

Copyright © 2021 Comsenz Inc. Powered by 蓝光电影网

蓝光电影网

本站内容由用户自主分享和转载自互联网,转载目的在于传递更多信息,并不代表本网赞同其观点和对其真实性负责。

如有侵权、违反国家法律政策行为,请联系我们,我们会第一时间及时清除和处理!

举报反馈邮箱:[email protected]

快速回复 返回顶部 返回列表