找回密码

蓝光电影网

查看: 20|回复: 0

[剧情] 奔跑的人 The.Running.Man.1963.1080p.BluRay.REMUX.AVC.LPCM.1.0-FGT 28.55GB

[复制链接]
蓝光币
515
发表于 2019-7-20 13:09:31 | 显示全部楼层 |阅读模式


◎译  名 奔驰的人 / The Running Man
◎片  名 The Running Man
◎年  代 1963
◎产  地 英国
◎类  别 剧情 / 犯罪
◎语  言 英语
◎上映日期 1963
◎IMDb评分  6.6/10 from 861 users
◎IMDb链接  http://www.imdb.com/title/tt0057463
◎豆瓣评分 0/10 from 0 users
◎豆瓣链接 https://movie.douban.com/subject/5058669/
◎片  长 103 分钟
◎导  演 卡罗尔·里德 Carol Reed
◎编  剧 谢利·史姑娘 Shelley Smith
◎主  演 劳伦斯·哈维 Laurence Harvey
      丽·莱米克 Lee Remick
      阿兰·贝茨 Alan Bates

◎标  签 被轻忽的电影 | 英国电影 | 卡罗尔·里德 | Z美国 | Carol_Reed | 1963 | 1960-1969
◎简  介  
  英国电影和电视艺术学院奖(1964;第17届)
提名 ·电影奖-最好英国摄影(彩色)罗伯特·克拉斯格尔 Robert Krasker
  1. Video
  2. ID                                       : 1
  3. Format                                   : AVC
  4. Format/Info                              : Advanced Video Codec
  5. Format profile                           : [email protected]
  6. Format settings                          : CABAC / 3 Ref Frames
  7. Format settings, CABAC                   : Yes
  8. Format settings, Reference frames        : 3 frames
  9. Codec ID                                 : V_MPEG4/ISO/AVC
  10. Duration                                 : 1 h 44 min
  11. Bit rate mode                            : Variable
  12. Bit rate                                 : 35.4 Mb/s
  13. Maximum bit rate                         : 38.0 Mb/s
  14. Width                                    : 1 920 pixels
  15. Height                                   : 1 080 pixels
  16. Display aspect ratio                     : 16:9
  17. Frame rate mode                          : Constant
  18. Frame rate                               : 23.976 (24000/1001) FPS
  19. Color space                              : YUV
  20. Chroma subsampling                       : 4:2:0
  21. Bit depth                                : 8 bits
  22. Scan type                                : Progressive
  23. Bits/(Pixel*Frame)                       : 0.712
  24. Stream size                              : 25.8 GiB (90%)
  25. Title                                    : The.Running.Man.1963.1080p.BluRay.REMUX.AVC.LPCM.1.0-FGT
  26. Language                                 : English
  27. Default                                  : No
  28. Forced                                   : No
  29. Color range                              : Limited
  30. Color primaries                          : BT.709
  31. Transfer characteristics                 : BT.709
  32. Matrix coefficients                      : BT.709
  33. Audio #1
  34. ID                                       : 2
  35. Format                                   : PCM
  36. Format settings                          : Little / Signed
  37. Codec ID                                 : A_PCM/INT/LIT
  38. Duration                                 : 1 h 44 min
  39. Bit rate mode                            : Constant
  40. Bit rate                                 : 1 152 kb/s
  41. Sampling rate                            : 48.0 kHz
  42. Frame rate                               : 30.000 FPS (1600 SPF)
  43. Bit depth                                : 24 bits
  44. Stream size                              : 859 MiB (3%)
  45. Title                                    : The.Running.Man.1963.1080p.BluRay.REMUX.AVC.LPCM.1.0-FGT
  46. Language                                 : English
  47. Default                                  : Yes
  48. Forced                                   : No
  49. Audio #2
  50. ID                                       : 3
  51. Format                                   : PCM
  52. Format settings                          : Little / Signed
  53. Codec ID                                 : A_PCM/INT/LIT
  54. Duration                                 : 1 h 44 min
  55. Bit rate mode                            : Constant
  56. Bit rate                                 : 1 152 kb/s
  57. Sampling rate                            : 48.0 kHz
  58. Frame rate                               : 30.000 FPS (1600 SPF)
  59. Bit depth                                : 24 bits
  60. Stream size                              : 859 MiB (3%)
  61. Title                                    : The.Running.Man.1963.1080p.BluRay.REMUX.AVC.LPCM.1.0-FGT
  62. Language                                 : English
  63. Default                                  : No
  64. Forced                                   : No
  65. Audio #3
  66. ID                                       : 4
  67. Format                                   : AC-3
  68. Format/Info                              : Audio Coding 3
  69. Commercial name                          : Dolby Digital
  70. Codec ID                                 : A_AC3
  71. Duration                                 : 1 h 44 min
  72. Bit rate mode                            : Constant
  73. Bit rate                                 : 320 kb/s
  74. Channel(s)                               : 1 channel
  75. Channel layout                           : C
  76. Sampling rate                            : 48.0 kHz
  77. Frame rate                               : 31.250 FPS (1536 SPF)
  78. Bit depth                                : 16 bits
  79. Compression mode                         : Lossy
  80. Stream size                              : 239 MiB (1%)
  81. Title                                    : The.Running.Man.1963.1080p.BluRay.REMUX.AVC.LPCM.1.0-FGT
  82. Language                                 : English
  83. Service kind                             : Complete Main
  84. Default                                  : No
  85. Forced                                   : No
  86. Audio #4
  87. ID                                       : 5
  88. Format                                   : PCM
  89. Format settings                          : Little / Signed
  90. Codec ID                                 : A_PCM/INT/LIT
  91. Duration                                 : 1 h 44 min
  92. Bit rate mode                            : Constant
  93. Bit rate                                 : 1 152 kb/s
  94. Sampling rate                            : 48.0 kHz
  95. Frame rate                               : 30.000 FPS (1600 SPF)
  96. Bit depth                                : 24 bits
  97. Stream size                              : 859 MiB (3%)
  98. Title                                    : The.Running.Man.1963.1080p.BluRay.REMUX.AVC.LPCM.1.0-FGT
  99. Language                                 : English
  100. Default                                  : No
  101. Forced                                   : No
  102. Text
  103. ID                                       : 6
  104. Format                                   : PGS
  105. Muxing mode                              : zlib
  106. Codec ID                                 : S_HDMV/PGS
  107. Codec ID/Info                            : Picture based subtitle format used on BDs/HD-DVDs
  108. Duration                                 : 1 h 42 min
  109. Bit rate                                 : 33.3 kb/s
  110. Count of elements                        : 2416
  111. Stream size                              : 24.4 MiB (0%)
  112. Title                                    : English-PGS
  113. Language                                 : English
  114. Default                                  : Yes
  115. Forced                                   : No
  116. Menu
  117. 00:00:00.125                             : en:Chapter 01
  118. 00:07:17.437                             : en:Chapter 02
  119. 00:16:04.338                             : en:Chapter 03
  120. 00:24:52.657                             : en:Chapter 04
  121. 00:35:40.847                             : en:Chapter 05
  122. 00:42:15.950                             : en:Chapter 06
  123. 00:51:02.726                             : en:Chapter 07
  124. 01:00:30.376                             : en:Chapter 08
  125. 01:08:44.370                             : en:Chapter 09
  126. 01:16:22.744                             : en:Chapter 10
  127. 01:25:13.274                             : en:Chapter 11
  128. 01:33:18.843                             : en:Chapter 12
复制代码






                                       
                                       

                                       
                                       
                                       




回复

使用道具 举报

懒得打字嘛,点击右侧快捷回复 【右侧内容,后台自定义】
您需要登录后才可以回帖 登录 | 立即加入

本版积分规则

Archiver|小黑屋| 蓝光电影网 |网站地图

Copyright © 2021 Comsenz Inc. Powered by 蓝光电影网

蓝光电影网

本站内容由用户自主分享和转载自互联网,转载目的在于传递更多信息,并不代表本网赞同其观点和对其真实性负责。

如有侵权、违反国家法律政策行为,请联系我们,我们会第一时间及时清除和处理!

举报反馈邮箱:[email protected]

快速回复 返回顶部 返回列表