找回密码

蓝光电影网

查看: 26|回复: 0

[剧情] 西行记 Westward.Ho.1935.1080p.BluRay.REMUX.AVC.DTS-HD.MA.1.0-FGT 11.92GB

[复制链接]
蓝光币
733
发表于 2019-7-20 13:05:24 | 显示全部楼层 |阅读模式


◎译  名 西行记
◎片  名 Westward Ho
◎年  代 1935
◎产  地 美国
◎类  别 剧情 / 历史 / 西部
◎语  言 英语
◎上映日期 1935-08-19(美国)
◎IMDb评分  5.7/10 from 387 users
◎IMDb链接  http://www.imdb.com/title/tt0027200
◎豆瓣评分 0/10 from 0 users
◎豆瓣链接 https://movie.douban.com/subject/24529730/
◎片  长 61分钟
◎导  演 Robert N. Bradbury
◎编  剧 Robert Emmett Tansey / Lindsley Parsons
◎主  演 John Wayne
      Sheila Bromley
      Frank McGlynn Jr.
      James Farley
      Jack Curtis
      Bradley Metcalfe
      Dickie Jones
      Mary MacLaren
      Yakima Canutt
      Hank Bell
      Glenn Strange
      The Singing Riders

◎标  签 西部片 | 美国电影 | 1930s | 西部牛仔 | 美国 | 电影 | 1935
◎简  介  
  暂无相关剧情先容
  1. Video
  2. ID                                       : 1
  3. Format                                   : AVC
  4. Format/Info                              : Advanced Video Codec
  5. Format profile                           : [email protected]
  6. Format settings                          : CABAC / 4 Ref Frames
  7. Format settings, CABAC                   : Yes
  8. Format settings, Reference frames        : 4 frames
  9. Codec ID                                 : V_MPEG4/ISO/AVC
  10. Duration                                 : 1 h 0 min
  11. Bit rate mode                            : Variable
  12. Bit rate                                 : 27.2 Mb/s
  13. Maximum bit rate                         : 33.5 Mb/s
  14. Width                                    : 1 920 pixels
  15. Height                                   : 1 080 pixels
  16. Display aspect ratio                     : 16:9
  17. Frame rate mode                          : Constant
  18. Frame rate                               : 23.976 (24000/1001) FPS
  19. Standard                                 : NTSC
  20. Color space                              : YUV
  21. Chroma subsampling                       : 4:2:0
  22. Bit depth                                : 8 bits
  23. Scan type                                : Progressive
  24. Bits/(Pixel*Frame)                       : 0.546
  25. Stream size                              : 11.6 GiB (97%)
  26. Title                                    : Westward.Ho.1935.1080p.BluRay.REMUX.AVC.DTS-HD.MA.1.0-FGT
  27. Language                                 : English
  28. Default                                  : No
  29. Forced                                   : No
  30. Color range                              : Limited
  31. Color primaries                          : BT.709
  32. Transfer characteristics                 : BT.709
  33. Matrix coefficients                      : BT.709
  34. Audio
  35. ID                                       : 2
  36. Format                                   : DTS XLL
  37. Format/Info                              : Digital Theater Systems
  38. Commercial name                          : DTS-HD Master Audio
  39. Codec ID                                 : A_DTS
  40. Duration                                 : 1 h 0 min
  41. Bit rate mode                            : Variable
  42. Bit rate                                 : 856 kb/s
  43. Channel(s)                               : 1 channel
  44. Channel layout                           : C
  45. Sampling rate                            : 48.0 kHz
  46. Frame rate                               : 93.750 FPS (512 SPF)
  47. Bit depth                                : 16 bits
  48. Compression mode                         : Lossless
  49. Stream size                              : 373 MiB (3%)
  50. Title                                    : Westward.Ho.1935.1080p.BluRay.REMUX.AVC.DTS-HD.MA.1.0-FGT
  51. Language                                 : English
  52. Default                                  : Yes
  53. Forced                                   : No
  54. Menu
  55. 00:00:00.000                             : en:Chapter 01
  56. 00:05:23.072                             : en:Chapter 02
  57. 00:09:20.393                             : en:Chapter 03
  58. 00:14:16.146                             : en:Chapter 04
  59. 00:17:14.825                             : en:Chapter 05
  60. 00:21:31.665                             : en:Chapter 06
  61. 00:24:13.493                             : en:Chapter 07
  62. 00:29:09.706                             : en:Chapter 08
  63. 00:33:41.060                             : en:Chapter 09
  64. 00:40:40.604                             : en:Chapter 10
  65. 00:48:25.027                             : en:Chapter 11
  66. 00:53:07.767                             : en:Chapter 12
复制代码






                                       
                                       

                                       
                                       
                                       




回复

使用道具 举报

懒得打字嘛,点击右侧快捷回复 【右侧内容,后台自定义】
您需要登录后才可以回帖 登录 | 立即加入

本版积分规则

Archiver|小黑屋| 蓝光电影网 |网站地图

Copyright © 2021 Comsenz Inc. Powered by 蓝光电影网

蓝光电影网

本站内容由用户自主分享和转载自互联网,转载目的在于传递更多信息,并不代表本网赞同其观点和对其真实性负责。

如有侵权、违反国家法律政策行为,请联系我们,我们会第一时间及时清除和处理!

举报反馈邮箱:[email protected]

快速回复 返回顶部 返回列表