找回密码

蓝光电影网

查看: 75|回复: 1

[动作] 夺金营救 Honest.Thief.2020.1080p.BluRay.REMUX.AVC.DTS-HD.MA.5.1-FGT 21.77GB

[复制链接]
蓝光币
515
发表于 2020-12-10 21:41:38 | 显示全部楼层 |阅读模式
[img][/img]

◎译  名 夺金救援/The Honest Thief/倒数还击(台)/末路狂盗(港)/老实的小偷
◎片  名 Honest Thief
◎年  代 2020
◎产  地 美国
◎类  别 行动 / 惊悚 / 犯罪
◎语  言 英语
◎上映日期 2020-09-03(丹麦) / 2020-10-16(美国)
◎IMDb评分  6/10 from 8052 users
◎IMDb链接  https://www.imdb.com/title/tt1838556/
◎豆瓣评分 5.8/10 from 1344 users
◎豆瓣链接 https://movie.douban.com/subject/30349249/
◎片  长 99分钟
◎导  演 马克·威廉姆斯 Mark Williams
◎编  剧 史蒂夫·奥尔里奇 Steve Allrich / 马克·威廉姆斯 Mark Williams
◎主  演 连姆·尼森 Liam Neeson
       凯特·沃什 Kate Walsh
       杰·科特尼 Jai Courtney
       杰弗里·多诺万 Jeffrey Donovan
       安东尼·拉莫斯 Anthony Ramos
       罗伯特·帕特里克 Robert Patrick
       塔兹 Tazzie
       何塞·冈斯·阿尔维斯 Jose Guns Alves
       珍妮尔·费格利 Janelle Feigley
       德文·迪普 Devon Diep
       杰米·加扎里安 Jamie Ghazarian
       帕蒂·奥尼尔 Patty O'Neil
       阿德里安·M·蒙波因特 Adrian M. Mompoint
       安东尼·拉莫斯 Anthony Ramos
       雅斯曼·塞斯·琼斯 Jasmine Cephas Jones
       玛塞拉·贾拉米洛 Marcela Jaramillo
◎标  签 行动 | 美国 | 犯罪 | 2020 | 剧情 | 悬疑 | 惊悚 | 人性
◎简  介


  连姆·尼森、凯特·沃什将主演新片[老实的小偷](The Honest Thief,暂译)。本片由马克·威廉姆斯执导,故事报告职业银行劫匪汤姆·卡特(尼森饰)碰到了他平生的挚爱安妮(沃尔什饰)。他之前在安妮工作的前台藏了700万美圆的赃物,现决议自首。当案件被交给一个奸滑的联邦观察局奸细时,一切都变得加倍危险和困难。
  1. Video
  2. ID                                       : 1
  3. ID in the original source medium         : 4113 (0x1011)
  4. Format                                   : AVC
  5. Format/Info                              : Advanced Video Codec
  6. Format profile                           : [email protected]
  7. Format settings                          : CABAC / 4 Ref Frames
  8. Format settings, CABAC                   : Yes
  9. Format settings, Reference frames        : 4 frames
  10. Format settings, GOP                     : M=3, N=24
  11. Codec ID                                 : V_MPEG4/ISO/AVC
  12. Duration                                 : 1 h 38 min
  13. Bit rate mode                            : Variable
  14. Bit rate                                 : 25.2 Mb/s
  15. Maximum bit rate                         : 30.0 Mb/s
  16. Width                                    : 1 920 pixels
  17. Height                                   : 1 080 pixels
  18. Display aspect ratio                     : 16:9
  19. Frame rate mode                          : Constant
  20. Frame rate                               : 24.000 FPS
  21. Color space                              : YUV
  22. Chroma subsampling                       : 4:2:0
  23. Bit depth                                : 8 bits
  24. Scan type                                : Progressive
  25. Bits/(Pixel*Frame)                       : 0.506
  26. Stream size                              : 17.3 GiB (80%)
  27. Title                                    : Honest.Thief.2020.1080p.BluRay.REMUX.AVC.DTS-HD.MA.5.1-FGT
  28. Language                                 : English
  29. Default                                  : No
  30. Forced                                   : No
  31. Color range                              : Limited
  32. Color primaries                          : BT.709
  33. Transfer characteristics                 : BT.709
  34. Matrix coefficients                      : BT.709
  35. Original source medium                   : Blu-ray
  36. Audio #1
  37. ID                                       : 2
  38. ID in the original source medium         : 4353 (0x1101)
  39. Format                                   : DTS XLL
  40. Format/Info                              : Digital Theater Systems
  41. Commercial name                          : DTS-HD Master Audio
  42. Codec ID                                 : A_DTS
  43. Duration                                 : 1 h 38 min
  44. Bit rate mode                            : Variable
  45. Bit rate                                 : 3 220 kb/s
  46. Channel(s)                               : 6 channels
  47. Channel layout                           : C L R Ls Rs LFE
  48. Sampling rate                            : 48.0 kHz
  49. Frame rate                               : 93.750 FPS (512 SPF)
  50. Bit depth                                : 24 bits
  51. Compression mode                         : Lossless
  52. Stream size                              : 2.22 GiB (10%)
  53. Title                                    : Honest.Thief.2020.1080p.BluRay.REMUX.AVC.DTS-HD.MA.5.1-FGT
  54. Language                                 : English
  55. Default                                  : Yes
  56. Forced                                   : No
  57. Original source medium                   : Blu-ray
  58. Audio #2
  59. ID                                       : 3
  60. ID in the original source medium         : 4352 (0x1100)
  61. Format                                   : DTS XLL
  62. Format/Info                              : Digital Theater Systems
  63. Commercial name                          : DTS-HD Master Audio
  64. Codec ID                                 : A_DTS
  65. Duration                                 : 1 h 38 min
  66. Bit rate mode                            : Variable
  67. Bit rate                                 : 3 211 kb/s
  68. Channel(s)                               : 6 channels
  69. Channel layout                           : C L R Ls Rs LFE
  70. Sampling rate                            : 48.0 kHz
  71. Frame rate                               : 93.750 FPS (512 SPF)
  72. Bit depth                                : 24 bits
  73. Compression mode                         : Lossless
  74. Stream size                              : 2.21 GiB (10%)
  75. Title                                    : Honest.Thief.2020.1080p.BluRay.REMUX.AVC.DTS-HD.MA.5.1-FGT
  76. Language                                 : Spanish
  77. Default                                  : No
  78. Forced                                   : No
  79. Original source medium                   : Blu-ray
  80. Text #1
  81. ID                                       : 4
  82. Format                                   : UTF-8
  83. Codec ID                                 : S_TEXT/UTF8
  84. Codec ID/Info                            : UTF-8 Plain Text
  85. Duration                                 : 1 h 28 min
  86. Bit rate                                 : 54 b/s
  87. Count of elements                        : 1111
  88. Stream size                              : 35.6 KiB (0%)
  89. Title                                    : English-SRT
  90. Language                                 : English
  91. Default                                  : Yes
  92. Forced                                   : No
  93. Text #2
  94. ID                                       : 5
  95. ID in the original source medium         : 4608 (0x1200)
  96. Format                                   : PGS
  97. Muxing mode                              : zlib
  98. Codec ID                                 : S_HDMV/PGS
  99. Codec ID/Info                            : Picture based subtitle format used on BDs/HD-DVDs
  100. Duration                                 : 1 h 30 min
  101. Bit rate                                 : 32.0 kb/s
  102. Count of elements                        : 2229
  103. Stream size                              : 20.7 MiB (0%)
  104. Title                                    : Spanish-PGS
  105. Language                                 : Spanish
  106. Default                                  : No
  107. Forced                                   : No
  108. Original source medium                   : Blu-ray
  109. Menu
  110. 00:00:00.000                             : es:Chapter 01
  111. 00:07:44.666                             : es:Chapter 02
  112. 00:14:48.083                             : es:Chapter 03
  113. 00:19:37.750                             : es:Chapter 04
  114. 00:24:50.208                             : es:Chapter 05
  115. 00:34:49.500                             : es:Chapter 06
  116. 00:45:43.458                             : es:Chapter 07
  117. 00:56:30.833                             : es:Chapter 08
  118. 01:06:26.875                             : es:Chapter 09
  119. 01:14:13.666                             : es:Chapter 10
  120. 01:22:05.375                             : es:Chapter 11
  121. 01:30:00.666                             : es:Chapter 12
复制代码



                                       
                                       

                                       
                                       
                                       




回复

使用道具 举报

蓝光币
14
发表于 2021-9-12 14:02:37 | 显示全部楼层
楼主发贴辛苦了,谢谢楼主分享!我觉得蓝光电影网是注册对了!
回复 支持 反对

使用道具 举报

懒得打字嘛,点击右侧快捷回复 【右侧内容,后台自定义】
您需要登录后才可以回帖 登录 | 立即加入

本版积分规则

Archiver|小黑屋| 蓝光电影网 |网站地图

Copyright © 2021 Comsenz Inc. Powered by 蓝光电影网

蓝光电影网

本站内容由用户自主分享和转载自互联网,转载目的在于传递更多信息,并不代表本网赞同其观点和对其真实性负责。

如有侵权、违反国家法律政策行为,请联系我们,我们会第一时间及时清除和处理!

举报反馈邮箱:[email protected]

快速回复 返回顶部 返回列表