找回密码

蓝光电影网

查看: 10|回复: 0

[其他] 幸福路上 On.Happiness.Road.2017.CHINESE.1080p.BluRay.x264-WiKi 9.01GB

[复制链接]
蓝光币
515
发表于 2020-9-23 10:42:21 | 显示全部楼层 |阅读模式


◎译  名 On Happiness Road/幸运路上动画电影版
◎片  名 幸运路上
◎年  代 2017
◎产  地 中国台湾
◎类  别 动画
◎语  言 汉语普通话,英语,闽南语
◎上映日期 2017-10-15(釜山电影节) / 2018-01-05(中国台湾)
◎IMDb评分  7.2/10 from 575 users
◎IMDb链接  https://www.imdb.com/title/tt7543904/
◎豆瓣评分 7.6/10 from 4684 users
◎豆瓣链接 https://movie.douban.com/subject/26605028/
◎片  长 111分钟
◎导  演 宋欣颖 Hsin Yin Sung
◎编  剧 宋欣颖 Hsin Yin Sung
◎主  演 桂纶镁 Lunmei Gwei
       魏德圣 Te-Sheng Wei
       陈博正 Bor Jing Chan
       廖慧珍 Hui-Jen Liao
       黎家秀 Shirly Li
◎标  签 动画 | 台湾 | 长大 | 家庭 | 人生 | 青春 | 桂纶镁 | 2017
◎简  介


  小琪 (桂綸鎂 聲演) 生於蔣介石去世當天,成長過程正是台灣社會經歷最劇烈轉變的時期。 小琪六歲那年舉家搬到新北市幸运路,為了滿足怙恃期望,她力爭上游,但也許幸运本來就沒有捷徑。 她一步步走上當初沒預期的路,到美國工作、結婚,走到人生的瓶頸,因外婆归天,重返故乡,回首童年過程中,渐渐思考自己走過的路:「長大了,我有成為理想中的大人嗎?」
◎获奖情况
  第55届台北金马影展 ?(2018)
  金马奖最好改编剧本(提名) 宋欣颖
  金马奖最好动画长片 宋欣颖
  
  第20届台北电影节 ?(2018)
  台北电影奖百万首奖 宋欣颖
  台北电影奖最好动画片 宋欣颖
  台北电影奖观众票选奖 宋欣颖
  1. Video
  2. ID                                       : 1
  3. Format                                   : AVC
  4. Format/Info                              : Advanced Video Codec
  5. Format profile                           : [email protected]
  6. Format settings                          : CABAC / 4 Ref Frames
  7. Format settings, CABAC                   : Yes
  8. Format settings, ReFrames                : 4 frames
  9. Codec ID                                 : V_MPEG4/ISO/AVC
  10. Duration                                 : 1 h 50 min
  11. Bit rate                                 : 11.0 Mb/s
  12. Width                                    : 1 920 pixels
  13. Height                                   : 1 036 pixels
  14. Display aspect ratio                     : 1.85:1
  15. Frame rate mode                          : Constant
  16. Frame rate                               : 24.000 FPS
  17. Color space                              : YUV
  18. Chroma subsampling                       : 4:2:0
  19. Bit depth                                : 8 bits
  20. Scan type                                : Progressive
  21. Bits/(Pixel*Frame)                       : 0.231
  22. Stream size                              : 8.50 GiB (94%)
  23. Writing library                          : x264 core 129 r2245 bc13772
  24. Encoding settings                        : cabac=1 / ref=4 / deblock=1:-3:-3 / analyse=0x3:0x133 / me=umh / subme=11 / psy=1 / psy_rd=0.60:0.00 / mixed_ref=1 / me_range=64 / chroma_me=1 / trellis=2 / 8x8dct=1 / cqm=0 / deadzone=21,11 / fast_pskip=0 / chroma_qp_offset=-2 / threads=12 / lookahead_threads=2 / sliced_threads=0 / nr=0 / decimate=1 / interlaced=0 / bluray_compat=0 / constrained_intra=0 / bframes=8 / b_pyramid=2 / b_adapt=2 / b_bias=0 / direct=3 / weightb=1 / open_gop=0 / weightp=2 / keyint=250 / keyint_min=24 / scenecut=40 / intra_refresh=0 / rc_lookahead=60 / rc=2pass / mbtree=0 / bitrate=11008 / ratetol=1.0 / qcomp=0.70 / qpmin=0 / qpmax=69 / qpstep=4 / cplxblur=20.0 / qblur=0.5 / vbv_maxrate=40000 / vbv_bufsize=30000 / nal_hrd=none / ip_ratio=1.40 / pb_ratio=1.30 / aq=1:0.80
  25. Language                                 : English
  26. Default                                  : Yes
  27. Forced                                   : No
  28. Audio
  29. ID                                       : 2
  30. Format                                   : AC-3
  31. Format/Info                              : Audio Coding 3
  32. Commercial name                          : Dolby Digital
  33. Codec ID                                 : A_AC3
  34. Duration                                 : 1 h 50 min
  35. Bit rate mode                            : Constant
  36. Bit rate                                 : 640 kb/s
  37. Channel(s)                               : 6 channels
  38. Channel layout                           : L R C LFE Ls Rs
  39. Sampling rate                            : 48.0 kHz
  40. Frame rate                               : 31.250 FPS (1536 SPF)
  41. Bit depth                                : 16 bits
  42. Compression mode                         : Lossy
  43. Stream size                              : 506 MiB (5%)
  44. Language                                 : Chinese
  45. Service kind                             : Complete Main
  46. Default                                  : Yes
  47. Forced                                   : No
  48. Text #1
  49. ID                                       : 3
  50. Format                                   : UTF-8
  51. Codec ID                                 : S_TEXT/UTF8
  52. Codec ID/Info                            : UTF-8 Plain Text
  53. Duration                                 : 1 h 49 min
  54. Bit rate                                 : 56 b/s
  55. Count of elements                        : 2026
  56. Stream size                              : 45.8 KiB (0%)
  57. Title                                    : 简体
  58. Language                                 : Chinese
  59. Default                                  : Yes
  60. Forced                                   : No
  61. Text #2
  62. ID                                       : 4
  63. Format                                   : UTF-8
  64. Codec ID                                 : S_TEXT/UTF8
  65. Codec ID/Info                            : UTF-8 Plain Text
  66. Duration                                 : 1 h 49 min
  67. Bit rate                                 : 56 b/s
  68. Count of elements                        : 2026
  69. Stream size                              : 45.8 KiB (0%)
  70. Title                                    : 繁体
  71. Language                                 : Chinese
  72. Default                                  : No
  73. Forced                                   : No
复制代码






                                       
                                       

                                       
                                       
                                       




回复

使用道具 举报

懒得打字嘛,点击右侧快捷回复 【右侧内容,后台自定义】
您需要登录后才可以回帖 登录 | 立即加入

本版积分规则

Archiver|小黑屋| 蓝光电影网 |网站地图

Copyright © 2021 Comsenz Inc. Powered by 蓝光电影网

蓝光电影网

本站内容由用户自主分享和转载自互联网,转载目的在于传递更多信息,并不代表本网赞同其观点和对其真实性负责。

如有侵权、违反国家法律政策行为,请联系我们,我们会第一时间及时清除和处理!

举报反馈邮箱:[email protected]

快速回复 返回顶部 返回列表