找回密码

蓝光电影网

查看: 12|回复: 0

[剧情] 怪房客 The.Tenant.1976.1080p.BluRay.REMUX.AVC.DD2.0-FGT 19.67GB

[复制链接]
蓝光币
515
发表于 2019-9-18 01:25:42 | 显示全部楼层 |阅读模式


◎译  名 怪佃农 / The Tenant
◎片  名 Le locataire
◎年  代 1976
◎产  地 法国
◎类  别 剧情 / 悬疑 / 惊悚
◎语  言 法语 / 英语
◎上映日期 1976-05-26(法国)
◎IMDb评分  7.7/10 from 34782 users
◎IMDb链接  http://www.imdb.com/title/tt0074811
◎豆瓣评分 7.9/10 from 9891 users
◎豆瓣链接 https://movie.douban.com/subject/1297399/
◎片  长 126分钟
◎导  演 罗曼·波兰斯基 Roman Polanski
◎编  剧 Gérard Brach / 罗曼·波兰斯基 Roman Polanski / Roland Topor
◎主  演 罗曼·波兰斯基 Roman Polanski
       伊莎贝尔·阿佳妮 Isabelle Adjani
       茂文·道格拉斯 Melvyn Douglas
       谢利·温特斯 Shelley Winters

◎标  签 法国 | 惊悚 | 罗曼·波兰斯基 | 波兰斯基 | RomanPolanski | 悬疑 | 可骇 | 1976
◎简  介  
  外向的波兰裔青年塔尔科夫斯基(罗曼·波兰斯基 Roman Polanski 饰)单独来到巴黎,希望在此租住一间公寓。这间房之前的佃农西蒙·肖(Romain Bouteille 饰)不知出于何种缘由跳楼自杀。在西蒙于医院中气绝身亡后,塔尔科夫斯基顺遂地成为了新的佃农。
  乔迁之喜并未给他带来太多欢乐,方圆的压制氛围无时无刻不在侵扰他的神经。这桩陈腐的公寓中住着很多呆板烦闷的人,他们埋怨塔尔科夫斯基制造过量的乐音、联名排挤其他佃农……这个不幸的青年虽然谨慎应对,却渐渐被他们逼向绝境。塔尔科夫斯基起头意想到西蒙·肖自杀的缘由,他同时发现,自己也正被这群怪佃农引向扑灭的尽头……
◎获奖情况  
  第29届戛纳电影节(1976)
  主比赛单元 金棕榈奖(提名) 罗曼·波兰斯基
  1. Video
  2. ID                                       : 1
  3. Format                                   : AVC
  4. Format/Info                              : Advanced Video Codec
  5. Format profile                           : [email protected]
  6. Format settings                          : CABAC / 3 Ref Frames
  7. Format settings, CABAC                   : Yes
  8. Format settings, Reference frames        : 3 frames
  9. Codec ID                                 : V_MPEG4/ISO/AVC
  10. Duration                                 : 2 h 5 min
  11. Bit rate mode                            : Variable
  12. Bit rate                                 : 22.0 Mb/s
  13. Maximum bit rate                         : 35.0 Mb/s
  14. Width                                    : 1 920 pixels
  15. Height                                   : 1 080 pixels
  16. Display aspect ratio                     : 16:9
  17. Frame rate mode                          : Constant
  18. Frame rate                               : 23.976 (24000/1001) FPS
  19. Standard                                 : NTSC
  20. Color space                              : YUV
  21. Chroma subsampling                       : 4:2:0
  22. Bit depth                                : 8 bits
  23. Scan type                                : Progressive
  24. Bits/(Pixel*Frame)                       : 0.442
  25. Stream size                              : 19.3 GiB (98%)
  26. Title                                    : The.Tennant.1976.1080p.BluRay.REMUX.AVC.DD2.0-FGT
  27. Language                                 : English
  28. Default                                  : No
  29. Forced                                   : No
  30. Color range                              : Limited
  31. Color primaries                          : BT.709
  32. Transfer characteristics                 : BT.709
  33. Matrix coefficients                      : BT.709
  34. Audio
  35. ID                                       : 2
  36. Format                                   : AC-3
  37. Format/Info                              : Audio Coding 3
  38. Commercial name                          : Dolby Digital
  39. Codec ID                                 : A_AC3
  40. Duration                                 : 2 h 5 min
  41. Bit rate mode                            : Constant
  42. Bit rate                                 : 448 kb/s
  43. Channel(s)                               : 2 channels
  44. Channel layout                           : L R
  45. Sampling rate                            : 48.0 kHz
  46. Frame rate                               : 31.250 FPS (1536 SPF)
  47. Bit depth                                : 16 bits
  48. Compression mode                         : Lossy
  49. Stream size                              : 402 MiB (2%)
  50. Title                                    : The.Tennant.1976.1080p.BluRay.REMUX.AVC.DD2.0-FGT
  51. Language                                 : English
  52. Service kind                             : Complete Main
  53. Default                                  : Yes
  54. Forced                                   : No
复制代码






                                       
                                       

                                       
                                       
                                       




回复

使用道具 举报

懒得打字嘛,点击右侧快捷回复 【右侧内容,后台自定义】
您需要登录后才可以回帖 登录 | 立即加入

本版积分规则

Archiver|小黑屋| 蓝光电影网 |网站地图

Copyright © 2021 Comsenz Inc. Powered by 蓝光电影网

蓝光电影网

本站内容由用户自主分享和转载自互联网,转载目的在于传递更多信息,并不代表本网赞同其观点和对其真实性负责。

如有侵权、违反国家法律政策行为,请联系我们,我们会第一时间及时清除和处理!

举报反馈邮箱:[email protected]

快速回复 返回顶部 返回列表