找回密码

蓝光电影网

查看: 14|回复: 0

[喜剧] 假戏真做 Libeled.Lady.1936.1080p.BluRay.x264.DTS-FGT 8.93GB

[复制链接]
蓝光币
515
发表于 2020-11-24 20:40:28 | 显示全部楼层 |阅读模式


◎译  名 假戏真做
◎片  名 Libeled Lady
◎年  代 1936
◎产  地 美国
◎类  别 笑剧 / 恋爱
◎语  言 英语
◎上映日期 1936-10-09
◎IMDb评分  7.9/10 from 6926 users
◎IMDb链接  https://www.imdb.com/title/tt0027884/
◎豆瓣评分 7.5/10 from 403 users
◎豆瓣链接 https://movie.douban.com/subject/1298982/
◎片  长 98 分钟
◎导  演 杰克·康威 Jack Conway
◎编  剧 莫里纳·达拉斯·沃特金斯 Maurine Dallas Watkins / Wallace Sullivan / 乔治·奥本海默 George Oppenheimer / 霍华德·埃米特·罗杰斯 Howard Emmett Rogers
◎主  演 珍·哈露 Jean Harlow
       威廉·鲍威尔 William Powell
       玛娜·洛伊 Myrna Loy
       斯宾塞·屈塞 Spencer Tracy
       William Newell
       Barnett Parker
       Inez Palange
       Buster Phelps
       杰克·茂豪尔 Jack Mulhall
       Thomas Pogue
       Franklin Parker
       Greta Meyer
       Wally Maher
       Alphonse Martell
       Myra Marsh
       Tom Mahoney
       Eddie Shubert
       波蒂尔·罗辛 Bodil Rosing
       Nick Thompson
       杰德·普罗蒂 Jed Prouty
       Otto Yamaoka
       Duke York
       Eric Wilton
       帕特·韦斯特 Pat West
       博比·沃森 Bobby Watson
       Cora Witherspoon
       鲍勃·沃森 Bobs Watson
       查尔斯·特罗布里奇 Charles Trowbridge
       William Stack
       Libby Taylor
       理查德·塔克 Richard Tucker
       Edwin Stanley
       詹姆斯·T·麦克 James T. Mack
       查尔斯·金 Charles King
       Charles Irwin
       邦尼·贝蒂 Bunny Beatty
       Harry Allen
       诺曼·安斯利 Norman Ainsley
       霍华德·C·希克曼 Howard C. Hickman
       格温·李 Gwen Lee
       Edward Thomas
       Pat Somerset
       沃尔特·康诺利 Walter Connolly
       海蒂·麦克丹尼尔 Hattie McDaniel
       丹尼斯·欧基夫 Dennis O'Keefe
       William 'Billy' Benedict
       Tommy Bond
       Harry C. Bradley
       奥拉夫·许滕 Olaf Hytten
       塞尔默·杰克逊 Selmer Jackson
       弗莱德·格兰姆 Fred Graham
       Sherry Hall
       查利· 格雷普韦恩 Charley Grapewin
       哈尔·道森 Hal K. Dawson
       George Davis
       杰伊·伊顿 Jay Eaton
       乔治·钱德勒 George Chandler
       E.E. Clive
       Ralph Brooks
       Charles Croker-King
       斯潘塞·查特斯 Spencer Charters
◎标  签 美国 | 笑剧 | 1930s | 黑白 | 1936 | 恋爱 | WilliamPowell | 美国电影
◎简  介


  以报社为布景的笑剧,由三十年月的四大巨星威廉.鲍华、莫娜.罗拉、斯潘塞.特蕾西、琪恩.哈洛联手主演,故事描写报社编辑操纵他的未婚妻和前任记者去实施美男计好让一位富豪的女继续人放弃控诉报社离间罪,不意计划走了样,……搞得好不热烈。全片剧情峰回路转,重新至尾的成长都捉住观众的留意力,导演杰克.康威尔也拍得流利而松散,让四位大明星都有大展演技的机遇,因此制造出相当高的喜趣结果。
◎获奖情况
  第9届奥斯卡金像奖 ?(1937)
  最好影片(提名)
  1. Video
  2. ID                                       : 1
  3. Format                                   : AVC
  4. Format/Info                              : Advanced Video Codec
  5. Format profile                           : [email protected]
  6. Format settings                          : CABAC / 4 Ref Frames
  7. Format settings, CABAC                   : Yes
  8. Format settings, Reference frames        : 4 frames
  9. Codec ID                                 : V_MPEG4/ISO/AVC
  10. Duration                                 : 1 h 38 min
  11. Bit rate                                 : 11.5 Mb/s
  12. Width                                    : 1 480 pixels
  13. Height                                   : 1 080 pixels
  14. Display aspect ratio                     : 1.370
  15. Frame rate mode                          : Constant
  16. Frame rate                               : 23.976 (24000/1001/189150) FPS
  17. Color space                              : YUV
  18. Chroma subsampling                       : 4:2:0
  19. Bit depth                                : 8 bits
  20. Scan type                                : Progressive
  21. Bits/(Pixel*Frame)                       : 0.300
  22. Stream size                              : 7.89 GiB (88%)
  23. Title                                    : Libeled.Lady.1936.1080p.BluRay.x264.DTS-FGT
  24. Writing library                          : x264 core 148 r2748 97eaef2
  25. Encoding settings                        : cabac=1 / ref=4 / deblock=1:-2:-2 / analyse=0x3:0x113 / me=umh / subme=9 / psy=1 / psy_rd=1.00:0.15 / mixed_ref=1 / me_range=16 / chroma_me=1 / trellis=2 / 8x8dct=1 / cqm=0 / deadzone=21,11 / fast_pskip=1 / chroma_qp_offset=-3 / threads=24 / lookahead_threads=3 / sliced_threads=0 / nr=0 / decimate=1 / interlaced=0 / bluray_compat=0 / constrained_intra=0 / bframes=3 / b_pyramid=2 / b_adapt=1 / b_bias=0 / direct=3 / weightb=1 / open_gop=0 / weightp=2 / keyint=250 / keyint_min=25 / scenecut=40 / intra_refresh=0 / rc_lookahead=50 / rc=2pass / mbtree=1 / bitrate=11500 / ratetol=1.0 / qcomp=0.60 / qpmin=0 / qpmax=69 / qpstep=4 / cplxblur=20.0 / qblur=0.5 / vbv_maxrate=31250 / vbv_bufsize=31250 / nal_hrd=none / filler=0 / ip_ratio=1.40 / aq=1:1.00
  26. Language                                 : English
  27. Default                                  : Yes
  28. Forced                                   : No
  29. Audio
  30. ID                                       : 2
  31. ID in the original source medium         : 4352 (0x1100)
  32. Format                                   : DTS
  33. Format/Info                              : Digital Theater Systems
  34. Codec ID                                 : A_DTS
  35. Duration                                 : 1 h 38 min
  36. Bit rate mode                            : Constant
  37. Bit rate                                 : 1 509 kb/s
  38. Channel(s)                               : 2 channels
  39. Channel layout                           : L R
  40. Sampling rate                            : 48.0 kHz
  41. Frame rate                               : 93.750 FPS (512 SPF)
  42. Bit depth                                : 24 bits
  43. Compression mode                         : Lossy
  44. Stream size                              : 1.04 GiB (12%)
  45. Title                                    : Libeled.Lady.1936.1080p.BluRay.x264.DTS-FGT
  46. Language                                 : English
  47. Default                                  : No
  48. Forced                                   : No
  49. Original source medium                   : Blu-ray
  50. Text
  51. ID                                       : 3
  52. Format                                   : UTF-8
  53. Codec ID                                 : S_TEXT/UTF8
  54. Codec ID/Info                            : UTF-8 Plain Text
  55. Duration                                 : 1 h 36 min
  56. Bit rate                                 : 111 b/s
  57. Count of elements                        : 2573
  58. Stream size                              : 78.6 KiB (0%)
  59. Language                                 : English
  60. Default                                  : Yes
  61. Forced                                   : No
  62. Menu
  63. 00:00:00.000                             : en:Chapter 01
  64. 00:01:34.135                             : en:Chapter 02
  65. 00:04:20.718                             : en:Chapter 03
  66. 00:05:02.051                             : en:Chapter 04
  67. 00:10:22.163                             : en:Chapter 05
  68. 00:11:40.825                             : en:Chapter 06
  69. 00:12:44.847                             : en:Chapter 07
  70. 00:17:54.698                             : en:Chapter 08
  71. 00:19:52.482                             : en:Chapter 09
  72. 00:20:48.288                             : en:Chapter 10
  73. 00:24:01.690                             : en:Chapter 11
  74. 00:25:44.668                             : en:Chapter 12
  75. 00:27:21.514                             : en:Chapter 13
  76. 00:30:05.220                             : en:Chapter 14
  77. 00:34:46.709                             : en:Chapter 15
  78. 00:37:04.889                             : en:Chapter 16
  79. 00:39:24.403                             : en:Chapter 17
  80. 00:41:38.329                             : en:Chapter 18
  81. 00:43:55.549                             : en:Chapter 19
  82. 00:46:37.920                             : en:Chapter 20
  83. 00:49:29.675                             : en:Chapter 21
  84. 00:53:52.729                             : en:Chapter 22
  85. 00:55:17.230                             : en:Chapter 23
  86. 01:00:21.659                             : en:Chapter 24
  87. 01:05:25.922                             : en:Chapter 25
  88. 01:07:46.937                             : en:Chapter 26
  89. 01:09:28.747                             : en:Chapter 27
  90. 01:13:48.048                             : en:Chapter 28
  91. 01:16:19.741                             : en:Chapter 29
  92. 01:18:57.816                             : en:Chapter 30
  93. 01:20:50.220                             : en:Chapter 31
  94. 01:23:21.913                             : en:Chapter 32
  95. 01:27:14.437                             : en:Chapter 33
  96. 01:30:00.269                             : en:Chapter 34
  97. 01:35:17.128                             : en:Chapter 35
  98. 01:38:00.958                             : en:Chapter 36
  99. 01:38:14.972                             : en:Chapter 37
复制代码






                                       
                                       

                                       
                                       
                                       




回复

使用道具 举报

懒得打字嘛,点击右侧快捷回复 【右侧内容,后台自定义】
您需要登录后才可以回帖 登录 | 立即加入

本版积分规则

Archiver|小黑屋| 蓝光电影网 |网站地图

Copyright © 2021 Comsenz Inc. Powered by 蓝光电影网

蓝光电影网

本站内容由用户自主分享和转载自互联网,转载目的在于传递更多信息,并不代表本网赞同其观点和对其真实性负责。

如有侵权、违反国家法律政策行为,请联系我们,我们会第一时间及时清除和处理!

举报反馈邮箱:[email protected]

快速回复 返回顶部 返回列表