找回密码

蓝光电影网

查看: 24|回复: 0

[喜剧] 玛丽·弗朗辛 Marie.Francine.2017.FRENCH.1080p.BluRay.x264.DTS-NOGRP 10.74GB

[复制链接]
蓝光币
519
发表于 2020-11-24 20:34:30 | 显示全部楼层 |阅读模式


◎译  名 玛丽·弗朗辛/50 Is The New 30/五十而麗(台)/重启人生
◎片  名 Marie-Francine
◎年  代 2017
◎产  地 法国
◎类  别 笑剧
◎语  言 法语
◎上映日期 2017-05-31(法国)
◎IMDb评分  5.6/10 from 980 users
◎IMDb链接  https://www.imdb.com/title/tt6081632/
◎豆瓣评分 6.6/10 from 234 users
◎豆瓣链接 https://movie.douban.com/subject/27028991/
◎片  长 95分钟
◎导  演 瓦莱丽·勒梅西埃 Valérie Lemercier
◎编  剧 瓦莱丽·勒梅西埃 Valérie Lemercier / 萨比娜·奥德潘 Sabine Haudepin
◎主  演 瓦莱丽·勒梅西埃 Valérie Lemercier
       海伦·文森特 Hélène Vincent
       德尼·波达利德斯 Denis Podalydès
       帕特里克·坦西 Patrick Timsit
       泽维尔·勒梅特 Xavier Lema?tre
       洛伊奇·勒让德 Lo?c Legendre
◎标  签 法国 | 笑剧 | 女性 | 2017 | 恋爱 | 法国电影 | 电影 | 瓦莱丽·勒梅西埃
◎简  介


  瑪莉法蘭辛遭到丈夫拋棄,工作也丟了。被迫在50歲這年,搬去和怙恃同住。他們把她當作小孩,還幫她開了一家電子菸店讓她治理。在那裡,她相逢了米格爾,是一位大廚,和她有类似遭受卻不敢承認。邁入中年後,要保丰年輕的心相當不轻易,但瑪莉法蘭辛證了然50歲也能活出新人生。
  1. Video
  2. ID                                       : 1
  3. Format                                   : AVC
  4. Format/Info                              : Advanced Video Codec
  5. Format profile                           : [email protected]
  6. Format settings                          : CABAC / 4 Ref Frames
  7. Format settings, CABAC                   : Yes
  8. Format settings, Reference frames        : 4 frames
  9. Codec ID                                 : V_MPEG4/ISO/AVC
  10. Duration                                 : 1 h 35 min
  11. Bit rate                                 : 14.6 Mb/s
  12. Width                                    : 1 920 pixels
  13. Height                                   : 804 pixels
  14. Display aspect ratio                     : 2.40:1
  15. Frame rate mode                          : Constant
  16. Frame rate                               : 24.000 FPS
  17. Color space                              : YUV
  18. Chroma subsampling                       : 4:2:0
  19. Bit depth                                : 8 bits
  20. Scan type                                : Progressive
  21. Bits/(Pixel*Frame)                       : 0.393
  22. Stream size                              : 9.73 GiB (91%)
  23. Writing library                          : x264 core 142 r2479 dd79a61
  24. Encoding settings                        : cabac=1 / ref=3 / deblock=1:0:0 / analyse=0x3:0x113 / me=hex / subme=7 / psy=1 / psy_rd=1.00:0.00 / mixed_ref=1 / me_range=16 / chroma_me=1 / trellis=1 / 8x8dct=1 / cqm=0 / deadzone=21,11 / fast_pskip=1 / chroma_qp_offset=-2 / threads=18 / lookahead_threads=3 / sliced_threads=0 / nr=0 / decimate=1 / interlaced=0 / bluray_compat=0 / constrained_intra=0 / bframes=3 / b_pyramid=2 / b_adapt=1 / b_bias=0 / direct=1 / weightb=1 / open_gop=0 / weightp=2 / keyint=240 / keyint_min=24 / scenecut=40 / intra_refresh=0 / rc_lookahead=40 / rc=2pass / mbtree=1 / bitrate=14556 / ratetol=1.0 / qcomp=0.60 / qpmin=0 / qpmax=69 / qpstep=4 / cplxblur=20.0 / qblur=0.5 / vbv_maxrate=62500 / vbv_bufsize=78125 / nal_hrd=none / filler=0 / ip_ratio=1.40 / aq=1:1.00
  25. Language                                 : French
  26. Default                                  : Yes
  27. Forced                                   : No
  28. Color range                              : Limited
  29. Color primaries                          : BT.709
  30. Transfer characteristics                 : BT.709
  31. Matrix coefficients                      : BT.709
  32. Audio
  33. ID                                       : 2
  34. Format                                   : DTS
  35. Format/Info                              : Digital Theater Systems
  36. Codec ID                                 : A_DTS
  37. Duration                                 : 1 h 35 min
  38. Bit rate mode                            : Constant
  39. Bit rate                                 : 1 509 kb/s
  40. Channel(s)                               : 6 channels
  41. Channel layout                           : C L R Ls Rs LFE
  42. Sampling rate                            : 48.0 kHz
  43. Frame rate                               : 93.750 FPS (512 SPF)
  44. Bit depth                                : 24 bits
  45. Compression mode                         : Lossy
  46. Stream size                              : 1.01 GiB (9%)
  47. Language                                 : French
  48. Default                                  : Yes
  49. Forced                                   : No
  50. Text
  51. ID                                       : 3
  52. Format                                   : UTF-8
  53. Codec ID                                 : S_TEXT/UTF8
  54. Codec ID/Info                            : UTF-8 Plain Text
  55. Duration                                 : 1 h 29 min
  56. Bit rate                                 : 51 b/s
  57. Count of elements                        : 1327
  58. Stream size                              : 33.7 KiB (0%)
  59. Language                                 : English
  60. Default                                  : Yes
  61. Forced                                   : No
复制代码






                                       
                                       

                                       
                                       
                                       




回复

使用道具 举报

懒得打字嘛,点击右侧快捷回复 【右侧内容,后台自定义】
您需要登录后才可以回帖 登录 | 立即加入

本版积分规则

Archiver|小黑屋| 蓝光电影网 |网站地图

Copyright © 2021 Comsenz Inc. Powered by 蓝光电影网

蓝光电影网

本站内容由用户自主分享和转载自互联网,转载目的在于传递更多信息,并不代表本网赞同其观点和对其真实性负责。

如有侵权、违反国家法律政策行为,请联系我们,我们会第一时间及时清除和处理!

举报反馈邮箱:[email protected]

快速回复 返回顶部 返回列表