找回密码

蓝光电影网

查看: 87|回复: 0

[动作] 异教徒 Infidel.2019.1080p.BluRay.REMUX.AVC.DTS-HD.MA.5.1-FGT 28.97GB

[复制链接]
蓝光币
511
发表于 2020-12-10 00:06:53 | 显示全部楼层 |阅读模式
[img][/img]

◎译  名 异教徒
◎片  名 Infidel
◎年  代 2019
◎产  地 美国
◎类  别 行动 / 惊悚 / 冒险
◎语  言 英语
◎上映日期 2019-11-08(美国点映) / 2020-09-18(美国)
◎IMDb评分  6/10 from 1244 users
◎IMDb链接  https://www.imdb.com/title/tt11229780/
◎豆瓣评分 /10 from 0 users
◎豆瓣链接 https://movie.douban.com/subject/35064740/
◎片  长 107分钟
◎导  演 赛勒斯·诺拉斯特 Cyrus Nowrasteh
◎编  剧 赛勒斯·诺拉斯特 Cyrus Nowrasteh
◎主  演 吉姆·卡维泽 Jim Caviezel
       克劳迪娅·卡万 Claudia Karvan
       哈尔·奥赞 Hal Ozsan
       斯特里奥·萨万特 Stelio Savante
       毕扬·丹斯曼 Bijan Daneshmand
       伊莎贝拉·阿德里亚尼 Isabelle Adriani
       J.R.卡西亚 J.R. Cacia
       Peta Sergeant
◎标  签 美国 | 2019 | JimCaviezel | 美国电影 | 影 | 宗教 | 剧情 | 列传
◎简  介


  一位直抒己见的美国记者(吉姆·卡维泽饰)在埃及开罗加入会议时被伊朗政权绑架。他随后被带到中东,并因毛病控告接管审判。他的妻子是一位国务院官员,她试图操纵自己的影响力,让美国政府介入进来,让他们把她的丈夫救返来。但她很称心识到美国政府不会介入此事。所以,她被迫单独前往中东寻觅他。
  1. Video
  2. ID                                       : 1
  3. ID in the original source medium         : 4113 (0x1011)
  4. Format                                   : AVC
  5. Format/Info                              : Advanced Video Codec
  6. Format profile                           : [email protected]
  7. Format settings                          : CABAC / 4 Ref Frames
  8. Format settings, CABAC                   : Yes
  9. Format settings, Reference frames        : 4 frames
  10. Codec ID                                 : V_MPEG4/ISO/AVC
  11. Duration                                 : 1 h 48 min
  12. Bit rate mode                            : Variable
  13. Bit rate                                 : 33.5 Mb/s
  14. Maximum bit rate                         : 37.0 Mb/s
  15. Width                                    : 1 920 pixels
  16. Height                                   : 1 080 pixels
  17. Display aspect ratio                     : 16:9
  18. Frame rate mode                          : Constant
  19. Frame rate                               : 23.976 (24000/1001/189150) FPS
  20. Color space                              : YUV
  21. Chroma subsampling                       : 4:2:0
  22. Bit depth                                : 8 bits
  23. Scan type                                : Progressive
  24. Bits/(Pixel*Frame)                       : 0.673
  25. Stream size                              : 25.3 GiB (87%)
  26. Title                                    : Infidel.2019.1080p.BluRay.REMUX.AVC.DTS-HD.MA.5.1-FGT
  27. Language                                 : English
  28. Default                                  : No
  29. Forced                                   : No
  30. Original source medium                   : Blu-ray
  31. Audio #1
  32. ID                                       : 2
  33. ID in the original source medium         : 4352 (0x1100)
  34. Format                                   : DTS XLL
  35. Format/Info                              : Digital Theater Systems
  36. Commercial name                          : DTS-HD Master Audio
  37. Codec ID                                 : A_DTS
  38. Duration                                 : 1 h 48 min
  39. Bit rate mode                            : Variable
  40. Bit rate                                 : 3 709 kb/s
  41. Channel(s)                               : 6 channels
  42. Channel layout                           : C L R Ls Rs LFE
  43. Sampling rate                            : 48.0 kHz
  44. Frame rate                               : 93.750 FPS (512 SPF)
  45. Bit depth                                : 24 bits
  46. Compression mode                         : Lossless
  47. Stream size                              : 2.80 GiB (10%)
  48. Title                                    : Infidel.2019.1080p.BluRay.REMUX.AVC.DTS-HD.MA.5.1-FGT
  49. Language                                 : English
  50. Default                                  : Yes
  51. Forced                                   : No
  52. Original source medium                   : Blu-ray
  53. Audio #2
  54. ID                                       : 3
  55. ID in the original source medium         : 4353 (0x1101)
  56. Format                                   : AC-3
  57. Format/Info                              : Audio Coding 3
  58. Commercial name                          : Dolby Digital
  59. Codec ID                                 : A_AC3
  60. Duration                                 : 1 h 48 min
  61. Bit rate mode                            : Constant
  62. Bit rate                                 : 192 kb/s
  63. Channel(s)                               : 2 channels
  64. Channel layout                           : L R
  65. Sampling rate                            : 48.0 kHz
  66. Frame rate                               : 31.250 FPS (1536 SPF)
  67. Compression mode                         : Lossy
  68. Stream size                              : 148 MiB (1%)
  69. Title                                    : Infidel.2019.1080p.BluRay.REMUX.AVC.DTS-HD.MA.5.1-FGT
  70. Language                                 : English
  71. Service kind                             : Complete Main
  72. Default                                  : No
  73. Forced                                   : No
  74. Original source medium                   : Blu-ray
  75. Audio #3
  76. ID                                       : 4
  77. ID in the original source medium         : 4354 (0x1102)
  78. Format                                   : DTS
  79. Format/Info                              : Digital Theater Systems
  80. Codec ID                                 : A_DTS
  81. Duration                                 : 1 h 48 min
  82. Bit rate mode                            : Constant
  83. Bit rate                                 : 768 kb/s
  84. Channel(s)                               : 6 channels
  85. Channel layout                           : C L R Ls Rs LFE
  86. Sampling rate                            : 48.0 kHz
  87. Frame rate                               : 93.750 FPS (512 SPF)
  88. Bit depth                                : 24 bits
  89. Compression mode                         : Lossy
  90. Stream size                              : 594 MiB (2%)
  91. Title                                    : Infidel.2019.1080p.BluRay.REMUX.AVC.DTS-HD.MA.5.1-FGT
  92. Language                                 : Spanish
  93. Default                                  : No
  94. Forced                                   : No
  95. Original source medium                   : Blu-ray
  96. Audio #4
  97. ID                                       : 5
  98. ID in the original source medium         : 4355 (0x1103)
  99. Format                                   : AC-3
  100. Format/Info                              : Audio Coding 3
  101. Commercial name                          : Dolby Digital
  102. Codec ID                                 : A_AC3
  103. Duration                                 : 1 h 48 min
  104. Bit rate mode                            : Constant
  105. Bit rate                                 : 192 kb/s
  106. Channel(s)                               : 2 channels
  107. Channel layout                           : L R
  108. Sampling rate                            : 48.0 kHz
  109. Frame rate                               : 31.250 FPS (1536 SPF)
  110. Compression mode                         : Lossy
  111. Stream size                              : 148 MiB (1%)
  112. Title                                    : Infidel.2019.1080p.BluRay.REMUX.AVC.DTS-HD.MA.5.1-FGT
  113. Language                                 : English
  114. Service kind                             : Complete Main
  115. Default                                  : No
  116. Forced                                   : No
  117. Original source medium                   : Blu-ray
  118. Text #1
  119. ID                                       : 6
  120. Format                                   : UTF-8
  121. Codec ID                                 : S_TEXT/UTF8
  122. Codec ID/Info                            : UTF-8 Plain Text
  123. Duration                                 : 1 h 46 min
  124. Bit rate                                 : 48 b/s
  125. Count of elements                        : 1403
  126. Stream size                              : 37.7 KiB (0%)
  127. Title                                    : English-SRT
  128. Language                                 : English
  129. Default                                  : Yes
  130. Forced                                   : No
  131. Text #2
  132. ID                                       : 7
  133. ID in the original source medium         : 4608 (0x1200)
  134. Format                                   : PGS
  135. Muxing mode                              : zlib
  136. Codec ID                                 : S_HDMV/PGS
  137. Codec ID/Info                            : Picture based subtitle format used on BDs/HD-DVDs
  138. Duration                                 : 1 h 47 min
  139. Bit rate                                 : 34.5 kb/s
  140. Count of elements                        : 3349
  141. Stream size                              : 26.6 MiB (0%)
  142. Title                                    : English-PGS
  143. Language                                 : English
  144. Default                                  : No
  145. Forced                                   : No
  146. Original source medium                   : Blu-ray
  147. Text #3
  148. ID                                       : 8
  149. ID in the original source medium         : 4609 (0x1201)
  150. Format                                   : PGS
  151. Muxing mode                              : zlib
  152. Codec ID                                 : S_HDMV/PGS
  153. Codec ID/Info                            : Picture based subtitle format used on BDs/HD-DVDs
  154. Duration                                 : 1 h 47 min
  155. Bit rate                                 : 27.0 kb/s
  156. Count of elements                        : 2493
  157. Stream size                              : 20.8 MiB (0%)
  158. Title                                    : Spanish-PGS
  159. Language                                 : Spanish
  160. Default                                  : No
  161. Forced                                   : No
  162. Original source medium                   : Blu-ray
  163. Text #4
  164. ID                                       : 9
  165. ID in the original source medium         : 4610 (0x1202)
  166. Format                                   : PGS
  167. Muxing mode                              : zlib
  168. Codec ID                                 : S_HDMV/PGS
  169. Codec ID/Info                            : Picture based subtitle format used on BDs/HD-DVDs
  170. Duration                                 : 1 h 47 min
  171. Bit rate                                 : 940 b/s
  172. Count of elements                        : 66
  173. Stream size                              : 741 KiB (0%)
  174. Title                                    : Spanish-FORCED-PGS
  175. Language                                 : Spanish
  176. Default                                  : No
  177. Forced                                   : No
  178. Original source medium                   : Blu-ray
  179. Menu
  180. 00:00:00.000                             : en:Chapter 01
  181. 00:05:35.293                             : en:Chapter 02
  182. 00:10:34.675                             : en:Chapter 03
  183. 00:16:13.222                             : en:Chapter 04
  184. 00:21:27.035                             : en:Chapter 05
  185. 00:27:39.074                             : en:Chapter 06
  186. 00:33:27.380                             : en:Chapter 07
  187. 00:37:03.554                             : en:Chapter 08
  188. 00:44:43.180                             : en:Chapter 09
  189. 00:50:39.703                             : en:Chapter 10
  190. 00:54:15.919                             : en:Chapter 11
  191. 01:01:58.965                             : en:Chapter 12
  192. 01:06:03.542                             : en:Chapter 13
  193. 01:11:08.180                             : en:Chapter 14
  194. 01:17:02.117                             : en:Chapter 15
  195. 01:24:15.467                             : en:Chapter 16
  196. 01:28:13.705                             : en:Chapter 17
  197. 01:34:20.738                             : en:Chapter 18
  198. 01:39:18.369                             : en:Chapter 19
  199. 01:45:12.389                             : en:Chapter 20
复制代码



                                       
                                       

                                       
                                       
                                       




回复

使用道具 举报

懒得打字嘛,点击右侧快捷回复 【右侧内容,后台自定义】
您需要登录后才可以回帖 登录 | 立即加入

本版积分规则

Archiver|小黑屋| 蓝光电影网 |网站地图

Copyright © 2021 Comsenz Inc. Powered by 蓝光电影网

蓝光电影网

本站内容由用户自主分享和转载自互联网,转载目的在于传递更多信息,并不代表本网赞同其观点和对其真实性负责。

如有侵权、违反国家法律政策行为,请联系我们,我们会第一时间及时清除和处理!

举报反馈邮箱:[email protected]

快速回复 返回顶部 返回列表