找回密码

蓝光电影网

查看: 22|回复: 0

[剧情] 战火球星 The.Keeper.2018.1080p.BluRay.REMUX.AVC.DTS-HD.MA.5.1-FGT 31.19GB

[复制链接]
蓝光币
733
发表于 2019-9-18 01:22:26 | 显示全部楼层 |阅读模式


◎译  名 烽火球星 / The Keeper / 特劳特曼
◎片  名 Trautmann
◎年  代 2018
◎产  地 英国 / 德国
◎类  别 剧情 / 恋爱 / 列传 / 战争 / 活动
◎语  言 英语 / 德语
◎上映日期 2019-03-14(德国) / 2019-04-05(英国)
◎IMDb评分  7.1/10 from 533 users
◎IMDb链接  http://www.imdb.com/title/tt4642192
◎豆瓣评分 0/10 from 0 users
◎豆瓣链接 https://movie.douban.com/subject/27068118/
◎片  长 120分钟
◎导  演 马库斯·H·罗森米勒 Marcus H. Rosenmüller
◎编  剧 Robert Marciniak / 马库斯·H·罗森米勒 Marcus H. Rosenmüller / 尼古拉斯·J·斯科菲尔德 Nicholas J. Schofield
◎主  演 大卫·克劳斯 David Kross
       弗雷娅·梅弗 Freya Mavor
       约翰·亨肖 John Henshaw
       哈利·米尔林 Harry Melling
       迈克尔·索恰 Michael Socha
       戴夫·琼斯 Dave Johns
       Barbara Young
       Mikey Collins
       加里·刘易斯 Gary Lewis
       德乌拉·基尔万 Dervla Kirwan
       麦斯米兰·贝佛特 Maximilian Befort
       伊恩·T·迪金森 Ian T. Dickinson
       斯蒂夫·哈德森 Steve Hudson

◎标  签 列传 | 足球 | 体育 | 德国 | 战争 | 德英合拍 | 英国 | 2018
◎简  介  
  由大卫·克劳斯([朗诵者])主演的列传片[特劳特曼]已在北爱尔兰开拍。该片由Marcus H. Rosenmüller执导。故事仆人公伯特·特劳特曼是二战中被英国作为战俘带返国的德国兵士。一位足球司剃头现了他的天赋并让他加入曼城球队。这里的人们对此提出抗议,但他出色的表示终极赢得了大师的尊重。
◎获奖情况  
  第9届北京国际电影节(2019)
  天坛奖 最好男配角奖 约翰·亨肖
  天坛奖(提名) 马库斯·H·罗森米勒
  1. Video
  2. ID                                       : 1
  3. Format                                   : AVC
  4. Format/Info                              : Advanced Video Codec
  5. Format profile                           : [email protected]
  6. Format settings                          : CABAC / 4 Ref Frames
  7. Format settings, CABAC                   : Yes
  8. Format settings, Reference frames        : 4 frames
  9. Codec ID                                 : V_MPEG4/ISO/AVC
  10. Duration                                 : 1 h 58 min
  11. Bit rate mode                            : Variable
  12. Bit rate                                 : 33.3 Mb/s
  13. Maximum bit rate                         : 35.0 Mb/s
  14. Width                                    : 1 920 pixels
  15. Height                                   : 1 080 pixels
  16. Display aspect ratio                     : 16:9
  17. Frame rate mode                          : Constant
  18. Frame rate                               : 24.000 FPS
  19. Standard                                 : NTSC
  20. Color space                              : YUV
  21. Chroma subsampling                       : 4:2:0
  22. Bit depth                                : 8 bits
  23. Scan type                                : Progressive
  24. Bits/(Pixel*Frame)                       : 0.669
  25. Stream size                              : 27.6 GiB (89%)
  26. Title                                    : The.Keeper.2018.1080p.BluRay.REMUX.AVC.DTS-HD.MA.5.1-FGT
  27. Language                                 : English
  28. Default                                  : No
  29. Forced                                   : No
  30. Color range                              : Limited
  31. Color primaries                          : BT.709
  32. Transfer characteristics                 : BT.709
  33. Matrix coefficients                      : BT.709
  34. Audio #1
  35. ID                                       : 2
  36. Format                                   : DTS XLL
  37. Format/Info                              : Digital Theater Systems
  38. Commercial name                          : DTS-HD Master Audio
  39. Codec ID                                 : A_DTS
  40. Duration                                 : 1 h 58 min
  41. Bit rate mode                            : Variable
  42. Bit rate                                 : 1 947 kb/s
  43. Channel(s)                               : 6 channels
  44. Channel layout                           : C L R Ls Rs LFE
  45. Sampling rate                            : 48.0 kHz
  46. Frame rate                               : 93.750 FPS (512 SPF)
  47. Bit depth                                : 16 bits
  48. Compression mode                         : Lossless
  49. Stream size                              : 1.62 GiB (5%)
  50. Title                                    : The.Keeper.2018.1080p.BluRay.REMUX.AVC.DTS-HD.MA.5.1-FGT
  51. Language                                 : English
  52. Default                                  : Yes
  53. Forced                                   : No
  54. Audio #2
  55. ID                                       : 3
  56. Format                                   : PCM
  57. Format settings                          : Little / Signed
  58. Codec ID                                 : A_PCM/INT/LIT
  59. Duration                                 : 1 h 58 min
  60. Bit rate mode                            : Constant
  61. Bit rate                                 : 2 304 kb/s
  62. Channel(s)                               : 2 channels
  63. Sampling rate                            : 48.0 kHz
  64. Frame rate                               : 30.000 FPS (1600 SPF)
  65. Bit depth                                : 24 bits
  66. Stream size                              : 1.91 GiB (6%)
  67. Title                                    : The.Keeper.2018.1080p.BluRay.REMUX.AVC.DTS-HD.MA.5.1-FGT
  68. Language                                 : English
  69. Default                                  : No
  70. Forced                                   : No
  71. Text #1
  72. ID                                       : 4
  73. Format                                   : PGS
  74. Muxing mode                              : zlib
  75. Codec ID                                 : S_HDMV/PGS
  76. Codec ID/Info                            : Picture based subtitle format used on BDs/HD-DVDs
  77. Duration                                 : 1 h 51 min
  78. Bit rate                                 : 43.9 kb/s
  79. Count of elements                        : 3028
  80. Stream size                              : 35.0 MiB (0%)
  81. Title                                    : English-PGS
  82. Language                                 : English
  83. Default                                  : Yes
  84. Forced                                   : No
  85. Text #2
  86. ID                                       : 5
  87. Format                                   : PGS
  88. Muxing mode                              : zlib
  89. Codec ID                                 : S_HDMV/PGS
  90. Codec ID/Info                            : Picture based subtitle format used on BDs/HD-DVDs
  91. Duration                                 : 1 h 31 min
  92. Bit rate                                 : 1 797 b/s
  93. Count of elements                        : 166
  94. Stream size                              : 1.18 MiB (0%)
  95. Title                                    : English-FORCED-PGS
  96. Language                                 : English
  97. Default                                  : No
  98. Forced                                   : No
  99. Menu
  100. 00:00:00.000                             : en:Chapter 01
  101. 00:09:52.416                             : en:Chapter 02
  102. 00:19:43.791                             : en:Chapter 03
  103. 00:29:04.291                             : en:Chapter 04
  104. 00:39:03.458                             : en:Chapter 05
  105. 00:49:00.416                             : en:Chapter 06
  106. 01:00:22.875                             : en:Chapter 07
  107. 01:10:02.000                             : en:Chapter 08
  108. 01:22:29.166                             : en:Chapter 09
  109. 01:29:57.625                             : en:Chapter 10
  110. 01:40:48.208                             : en:Chapter 11
  111. 01:53:06.416                             : en:Chapter 12
复制代码






                                       
                                       

                                       
                                       
                                       




回复

使用道具 举报

懒得打字嘛,点击右侧快捷回复 【右侧内容,后台自定义】
您需要登录后才可以回帖 登录 | 立即加入

本版积分规则

Archiver|小黑屋| 蓝光电影网 |网站地图

Copyright © 2021 Comsenz Inc. Powered by 蓝光电影网

蓝光电影网

本站内容由用户自主分享和转载自互联网,转载目的在于传递更多信息,并不代表本网赞同其观点和对其真实性负责。

如有侵权、违反国家法律政策行为,请联系我们,我们会第一时间及时清除和处理!

举报反馈邮箱:[email protected]

快速回复 返回顶部 返回列表