找回密码

蓝光电影网

查看: 12|回复: 0

[动作] 钢铁侠/钢铁人 Iron.Man.2008.REMASTERED.1080p.BluRay.x264.DTS-SWTYBLZ 15.49GB

[复制链接]
蓝光币
511
发表于 2019-8-10 04:59:53 | 显示全部楼层 |阅读模式


◎译  名 钢铁侠 / 钢铁人(台) / 铁人 / 铁甲奇侠(港)
◎片  名 Iron Man
◎年  代 2008
◎产  地 美国
◎类  别 行动 / 科幻 / 惊悚 / 冒险
◎语  言 英语 / 波斯语 / 乌尔都语 / 阿拉伯语
◎上映日期 2008-04-14(悉尼首映) / 2008-04-30(中国大陆) / 2008-05-02(美国)
◎IMDb评分  7.9/10 from 873040 users
◎IMDb链接  http://www.imdb.com/title/tt0371746
◎豆瓣评分 8.2/10 from 397473 users
◎豆瓣链接 https://movie.douban.com/subject/1432146/
◎片  长 126 分钟
◎导  演 乔恩·费儒 Jon Favreau
◎编  剧 特·马库姆 Art Marcum / 马特?霍洛维 Matt Holloway / 马克·弗格斯 Mark Fergus / 霍克·奥斯比 Hawk Ostby
◎主  演 小罗伯特·唐尼 Robert Downey Jr.
      泰伦斯·霍华德 Terrence Howard
      格温妮斯·帕特洛 Gwyneth Paltrow
      杰夫·布里吉斯 Jeff Bridges
      莱丝莉·比伯 Leslie Bibb
      肖恩·托布  Shaun Toub
      保罗·贝坦尼 Paul Bettany
      乔恩·费儒 Jon Favreau
      克拉克·格雷格 Clark Gregg

◎标  签 科幻 | 美国 | 行动 | 超级豪杰 | 漫威 | marvel | 2008 | 漫画改编
◎简  介  
  斯塔克军械公司是美军在全球范围内第一雄师火供给商,其新任掌门人托尼?斯塔克(小罗伯特·唐尼 Robert Downey Jr. 饰)风骚倜傥,天资聪慧。他与公司元老俄巴迪亚?斯坦(杰夫·布里吉斯 Jeff Bridges 饰)合作无间,配合将斯塔克公司的营业推向颠峰。现 实生活中的托尼热衷收集宝贵跑车,搞点儿发现缔造,固然露珠姻缘更不成少。所幸他身旁有维吉尼亚?波茨(格温妮斯·帕特洛 Gwyneth Paltrow 饰)这样的好助手仔细打理一切,才让他能自在安闲过着贵令郎的生活。
在前往中东为军方展现新型兵器的途中,托尼一众遭到可骇份子攻击。他被弹片击中几乎丧命,在英森博士的帮助下,托尼体内移植了一颗核动力的野生心脏。可骇份子要求托尼制造强大的杀伤性兵器,他和英森虚与委蛇,黑暗制造了一套由聚变能源驱动的钢铁盔甲。穿上盔甲托尼大闹可骇份子的基地,回到美国后又对其停止了改良。却不知,接下来有更加黑暗的诡计等着他……
◎获奖情况  
  第81届奥斯卡金像奖(2009)
  最好视觉结果(提名) 约翰·尼尔森 / Ben Snow / 丹尼尔·萨迪克 / Shane Mahan
  最好音效剪辑(提名) Frank E. Eulner / 克里斯托弗·博伊斯
  第18届MTV电影奖(2009)
  MTV电影奖 年度电影(提名)
  MTV电影奖 最好男演员(提名) 小罗伯特·唐尼
  第17届MTV电影奖(2008)
  MTV电影奖 迄今最好暑期电影
  第9届美国电影学会奖(2008)
  年度佳片

  1. Video
  2. ID                                       : 1
  3. Format                                   : AVC
  4. Format/Info                              : Advanced Video Codec
  5. Format profile                           : [email protected]
  6. Format settings                          : CABAC / 5 Ref Frames
  7. Format settings, CABAC                   : Yes
  8. Format settings, Reference frames        : 5 frames
  9. Codec ID                                 : V_MPEG4/ISO/AVC
  10. Duration                                 : 2 h 6 min
  11. Bit rate                                 : 16.1 Mb/s
  12. Width                                    : 1 920 pixels
  13. Height                                   : 800 pixels
  14. Display aspect ratio                     : 2.40:1
  15. Frame rate mode                          : Constant
  16. Frame rate                               : 23.976 (24000/1001) FPS
  17. Color space                              : YUV
  18. Chroma subsampling                       : 4:2:0
  19. Bit depth                                : 8 bits
  20. Scan type                                : Progressive
  21. Bits/(Pixel*Frame)                       : 0.437
  22. Stream size                              : 14.2 GiB (91%)
  23. Title                                    : Iron.Man.2008.REMASTERED.1080p.BluRay.x264.DTS-SWTYBLZ
  24. Writing library                          : x264 core 157 r2935 545de2f
  25. Encoding settings                        : cabac=1 / ref=5 / deblock=1:-1:-1 / analyse=0x3:0x133 / me=umh / subme=10 / psy=1 / psy_rd=1.00:0.15 / mixed_ref=1 / me_range=48 / chroma_me=1 / trellis=2 / 8x8dct=1 / cqm=0 / deadzone=21,11 / fast_pskip=1 / chroma_qp_offset=-3 / threads=25 / lookahead_threads=4 / sliced_threads=0 / nr=0 / decimate=0 / interlaced=0 / bluray_compat=0 / constrained_intra=0 / bframes=8 / b_pyramid=2 / b_adapt=2 / b_bias=0 / direct=3 / weightb=1 / open_gop=0 / weightp=2 / keyint=250 / keyint_min=23 / scenecut=40 / intra_refresh=0 / rc_lookahead=60 / rc=crf / mbtree=1 / crf=13.0 / qcomp=0.60 / qpmin=0 / qpmax=69 / qpstep=4 / ip_ratio=1.40 / aq=1:1.00
  26. Language                                 : English
  27. Default                                  : Yes
  28. Forced                                   : No
  29. Audio
  30. ID                                       : 2
  31. Format                                   : DTS
  32. Format/Info                              : Digital Theater Systems
  33. Codec ID                                 : A_DTS
  34. Duration                                 : 2 h 6 min
  35. Bit rate mode                            : Constant
  36. Bit rate                                 : 1 509 kb/s
  37. Channel(s)                               : 6 channels
  38. Channel layout                           : C L R Ls Rs LFE
  39. Sampling rate                            : 48.0 kHz
  40. Frame rate                               : 93.750 FPS (512 SPF)
  41. Bit depth                                : 24 bits
  42. Compression mode                         : Lossy
  43. Stream size                              : 1.33 GiB (9%)
  44. Title                                    : Iron.Man.2008.REMASTERED.1080p.BluRay.x264.DTS-SWTYBLZ
  45. Language                                 : English
  46. Default                                  : Yes
  47. Forced                                   : No
  48. Text #1
  49. ID                                       : 3
  50. Format                                   : UTF-8
  51. Codec ID                                 : S_TEXT/UTF8
  52. Codec ID/Info                            : UTF-8 Plain Text
  53. Duration                                 : 1 h 3 min
  54. Bit rate                                 : 1 b/s
  55. Count of elements                        : 38
  56. Stream size                              : 750 Bytes (0%)
  57. Title                                    : English-FORCED-SRT
  58. Language                                 : English
  59. Default                                  : Yes
  60. Forced                                   : Yes
  61. Text #2
  62. ID                                       : 4
  63. Format                                   : UTF-8
  64. Codec ID                                 : S_TEXT/UTF8
  65. Codec ID/Info                            : UTF-8 Plain Text
  66. Duration                                 : 2 h 4 min
  67. Bit rate                                 : 58 b/s
  68. Count of elements                        : 1357
  69. Stream size                              : 53.1 KiB (0%)
  70. Title                                    : English-SRT
  71. Language                                 : English
  72. Default                                  : No
  73. Forced                                   : No
  74. Menu
  75. 00:00:00.000                             : en:Chapter 01
  76. 00:09:04.169                             : en:Chapter 02
  77. 00:17:58.577                             : en:Chapter 03
  78. 00:26:47.940                             : en:Chapter 04
  79. 00:34:59.848                             : en:Chapter 05
  80. 00:43:13.257                             : en:Chapter 06
  81. 00:52:36.487                             : en:Chapter 07
  82. 00:59:22.642                             : en:Chapter 08
  83. 01:07:30.421                             : en:Chapter 09
  84. 01:11:42.298                             : en:Chapter 10
  85. 01:18:29.204                             : en:Chapter 11
  86. 01:24:38.573                             : en:Chapter 12
  87. 01:34:58.109                             : en:Chapter 13
  88. 01:44:27.344                             : en:Chapter 14
  89. 01:53:29.469                             : en:Chapter 15
复制代码






                                       
                                       

                                       
                                       
                                       




回复

使用道具 举报

懒得打字嘛,点击右侧快捷回复 【右侧内容,后台自定义】
您需要登录后才可以回帖 登录 | 立即加入

本版积分规则

Archiver|小黑屋| 蓝光电影网 |网站地图

Copyright © 2021 Comsenz Inc. Powered by 蓝光电影网

蓝光电影网

本站内容由用户自主分享和转载自互联网,转载目的在于传递更多信息,并不代表本网赞同其观点和对其真实性负责。

如有侵权、违反国家法律政策行为,请联系我们,我们会第一时间及时清除和处理!

举报反馈邮箱:[email protected]

快速回复 返回顶部 返回列表