找回密码

蓝光电影网

查看: 16|回复: 0

[其他] 十六个愿望 16.Wishes.2010.1080p.BluRay.x264.DTS-FGT 8.50GB

[复制链接]
蓝光币
511
发表于 2020-9-23 09:32:26 | 显示全部楼层 |阅读模式


◎译  名 十六个愿望
◎片  名 16 Wishes
◎年  代 2010
◎产  地 美国,加拿大
◎类  别 家庭 / 奇异
◎语  言 英语
◎上映日期 2010-06-25
◎IMDb评分  5.4/10 from 12137 users
◎IMDb链接  https://www.imdb.com/title/tt1646876/
◎豆瓣评分 6.3/10 from 4989 users
◎豆瓣链接 https://movie.douban.com/subject/4892634/
◎片  长 90分钟
◎编  剧 Annie DeYoung
◎主  演 让-卢克·比洛多 Jean-Luc Bilodeau
       帕特里克·吉尔莫 Patrick Gilmore
       黛比·瑞恩 Debby Ryan
       安娜-梅劳特里奇 Anna Mae Routledge
       基南·特雷西 Keenan Tracey
       乔尔·塞玛德 Joel Semande
◎标  签 青春 | 校园 | 美国 | 笑剧 | 美国电影 | 长大 | 恋爱 | Disney
◎简  介


  一个少女的愿望能有几多?是变标致还是获自得外之才?是获得年级里最帅的阿谁男生的亲睐还是让心目中最可爱的贱人蜜斯霉运连连?
  
  阿比(黛比·瑞恩 Debby Ryan 饰)是一个16岁的花季少女,和一切的姑娘一样,她不算敷裕,不算标致,有些傲娇,有些狂妄,但更多的,是普通和对未来布满着的无穷空想与向往。在16岁生日到来的这一天,她列下了一个愿望清单。而以后奇异的工作发生了,列在清单上的愿望居然一个接着一个的酿成了现实。满足之余,阿比却渐渐发现,那些曾以为是朝思暮想的工具,居然都不是自己所真正想要获得的,而她真正想要获得的究竟是什么呢?随着时候的流逝,阿比自会获得答案。
  1. Video
  2. ID                                       : 1
  3. Format                                   : AVC
  4. Format/Info                              : Advanced Video Codec
  5. Format profile                           : [email protected]
  6. Format settings                          : CABAC / 4 Ref Frames
  7. Format settings, CABAC                   : Yes
  8. Format settings, Reference frames        : 4 frames
  9. Codec ID                                 : V_MPEG4/ISO/AVC
  10. Duration                                 : 1 h 30 min
  11. Bit rate                                 : 11.7 Mb/s
  12. Width                                    : 1 920 pixels
  13. Height                                   : 1 080 pixels
  14. Display aspect ratio                     : 16:9
  15. Frame rate mode                          : Constant
  16. Frame rate                               : 23.976 (24000/1001/189150) FPS
  17. Color space                              : YUV
  18. Chroma subsampling                       : 4:2:0
  19. Bit depth                                : 8 bits
  20. Scan type                                : Progressive
  21. Bits/(Pixel*Frame)                       : 0.236
  22. Stream size                              : 7.38 GiB (87%)
  23. Writing library                          : x264 core 128 r2216 198a7ea
  24. Encoding settings                        : cabac=1 / ref=4 / deblock=1:-3:-3 / analyse=0x3:0x133 / me=umh / subme=11 / psy=1 / psy_rd=0.95:0.00 / mixed_ref=1 / me_range=48 / chroma_me=1 / trellis=2 / 8x8dct=1 / cqm=0 / deadzone=21,11 / fast_pskip=0 / chroma_qp_offset=-2 / threads=12 / lookahead_threads=2 / sliced_threads=0 / nr=0 / decimate=1 / interlaced=0 / bluray_compat=0 / constrained_intra=0 / bframes=9 / b_pyramid=2 / b_adapt=2 / b_bias=0 / direct=3 / weightb=1 / open_gop=0 / weightp=2 / keyint=240 / keyint_min=24 / scenecut=40 / intra_refresh=0 / rc=crf / mbtree=0 / crf=17.8 / qcomp=0.60 / qpmin=0 / qpmax=69 / qpstep=4 / ip_ratio=1.40 / pb_ratio=1.30 / aq=1:0.80
  25. Language                                 : English
  26. Default                                  : Yes
  27. Forced                                   : No
  28. Color range                              : Limited
  29. Color primaries                          : BT.709
  30. Transfer characteristics                 : BT.709
  31. Matrix coefficients                      : BT.709

  32. Audio
  33. ID                                       : 2
  34. Format                                   : DTS
  35. Format/Info                              : Digital Theater Systems
  36. Codec ID                                 : A_DTS
  37. Duration                                 : 1 h 30 min
  38. Bit rate mode                            : Constant
  39. Bit rate                                 : 1 509 kb/s
  40. Channel(s)                               : 6 channels
  41. Channel layout                           : C L R Ls Rs LFE
  42. Sampling rate                            : 48.0 kHz
  43. Frame rate                               : 93.750 FPS (512 SPF)
  44. Bit depth                                : 24 bits
  45. Compression mode                         : Lossy
  46. Stream size                              : 973 MiB (11%)
  47. Language                                 : English
  48. Default                                  : Yes
  49. Forced                                   : No

  50. Text
  51. ID                                       : 3
  52. Format                                   : UTF-8
  53. Codec ID                                 : S_TEXT/UTF8
  54. Codec ID/Info                            : UTF-8 Plain Text
  55. Language                                 : English
  56. Default                                  : No
  57. Forced                                   : No

  58. Menu
  59. 00:00:00.000                             : :Chapter 01
  60. 00:04:00.198                             : :Chapter 02
  61. 00:10:35.300                             : :Chapter 03
  62. 00:21:36.628                             : :Chapter 04
  63. 00:28:39.718                             : :Chapter 05
  64. 00:40:07.571                             : :Chapter 06
  65. 00:55:01.965                             : :Chapter 07
  66. 01:04:54.724                             : :Chapter 08
  67. 01:12:24.131                             : :Chapter 09
  68. 01:21:00.479                             : :Chapter 10
  69. 01:26:08.121                             : :Chapter 11
  70. 01:28:46.404                             : :Chapter 12
  71. 01:30:07.902                             : :Chapter 13
复制代码






                                       
                                       

                                       
                                       
                                       




回复

使用道具 举报

懒得打字嘛,点击右侧快捷回复 【右侧内容,后台自定义】
您需要登录后才可以回帖 登录 | 立即加入

本版积分规则

Archiver|小黑屋| 蓝光电影网 |网站地图

Copyright © 2021 Comsenz Inc. Powered by 蓝光电影网

蓝光电影网

本站内容由用户自主分享和转载自互联网,转载目的在于传递更多信息,并不代表本网赞同其观点和对其真实性负责。

如有侵权、违反国家法律政策行为,请联系我们,我们会第一时间及时清除和处理!

举报反馈邮箱:[email protected]

快速回复 返回顶部 返回列表