找回密码

蓝光电影网

查看: 55|回复: 0

[动作] 全面回忆/宇宙威龙 Total.Recall.1990.REMASTERED.1080p.BluRay.REMUX.AVC.DTS-HD.MA.TrueHD.7.1.Atmos-FGT 34.99GB

[复制链接]
蓝光币
515
发表于 2020-11-21 13:26:10 | 显示全部楼层 |阅读模式


◎译  名 周全回忆/宇宙威龙(港)/魔鬼总带动(台)
◎片  名 Total Recall
◎年  代 1990
◎产  地 美国
◎类  别 行动 / 科幻 / 惊悚 / 冒险
◎语  言 英语
◎上映日期 1990-06-01(美国)
◎IMDb评分  7.5/10 from 298731 users
◎IMDb链接  https://www.imdb.com/title/tt0100802/
◎豆瓣评分 7.7/10 from 25184 users
◎豆瓣链接 https://movie.douban.com/subject/1295870/
◎片  长 113分钟
◎导  演 保罗·范霍文 Paul Verhoeven
◎编  剧 菲利普·K·迪克 Philip K. Dick / 罗纳德·舒塞特 Ronald Shusett / 丹·欧班农 Dan O'Bannon / Jon Povill / 加里·戈德曼 Gary Goldman
◎主  演 阿诺·施瓦辛格 Arnold Schwarzenegger
       雷切尔·蒂科汀 Rachel Ticotin
       莎朗·斯通 Sharon Stone
       罗尼·考克斯 Ronny Cox
       迈克尔·艾恩塞德 Michael Ironside
       马绍尔·贝尔 Marshall Bell
       梅尔约翰逊 Mel Johnson Jr.
       迈克尔切姆平 Michael Champion
       罗伊·布罗克斯史姑娘 Roy Brocksmith
       雷·贝克 Ray Baker
       萝丝玛丽·邓斯莫尔 Rosemary Dunsmore
       戴维·奈尔 David Knell
       阿列卡夏罗宾逊 Alexia Robinson
       迪恩·诺里斯 Dean Norris
       马克卡尔顿 Mark Carlton
       黛比·李·卡林顿 Debbie Lee Carrington
       Lycia Naff
       罗伯特·康斯坦佐 Robert Costanzo
       Michael LaGuardia
       Priscilla Allen
       马克·阿莱莫 Marc Alaimo
       Michael Gregory
       户田惠子 Keiko Toda
       阿兰·格拉夫 Allan Graf
       鲍勃·祖迪克 Bob Tzudiker
       Erik Cord
       Bennie Moore
◎标  签 科幻 | 行动 | 施瓦辛格 | 美国 | 1990 | 美国电影 | ArnoldSchwarzenegger | 电影
◎简  介


  未来天下中,工程工人性情拉斯(Arnold Schwarzenegger 饰)被延续的梦乡困扰,那是一系列发生在红色火星上的体验。道格拉斯在广告上发现了回忆观光公司的先容,虽然同事警告他这类虚拟观光能够会风险人类的大脑,但比起亲身去一趟充溢着反政府武装的火星,回忆观光公司确是一个不错的挑选。道格拉斯如愿接管了回忆观光的办事,可是虚拟记忆的进程忽然出现毛病,自此一系列不成思议的履历出现在道格拉斯的身上,先是妻子劳瑞(Sharon Stone 饰)向他倡议进犯并认可自己是监视道格拉斯的特务,后来有陌生人出现帮助他逃走并指出他是火星独裁者针对反政府武装派出的奸细,成果由于一位女子梅丽(Rachel Ticotin 饰)改变了态度……道格拉斯动身前往火星,那边有一切的答案,大概一切又只是梦乡一场?
◎获奖情况
  第63届奥斯卡金像奖 ?(1991)
  最好音效剪辑(提名) 斯蒂芬·亨特·弗利克
  最好声响(提名) 亚伦·罗琴?/?迈克尔·J·科胡特?/?尼尔森·斯托尔?/?卡洛斯·德拉里奥斯
  出格成就奖 蒂姆·麦加沃恩?/?埃里克·布雷维格?/?罗伯·博汀
  
  第14届日本电影学院奖 ?(1991)
  最好外语片(提名)
  1. Video
  2. ID                                       : 1
  3. ID in the original source medium         : 4113 (0x1011)
  4. Format                                   : AVC
  5. Format/Info                              : Advanced Video Codec
  6. Format profile                           : [email protected]
  7. Format settings                          : CABAC / 4 Ref Frames
  8. Format settings, CABAC                   : Yes
  9. Format settings, Reference frames        : 4 frames
  10. Codec ID                                 : V_MPEG4/ISO/AVC
  11. Duration                                 : 1 h 53 min
  12. Bit rate mode                            : Variable
  13. Bit rate                                 : 27.7 Mb/s
  14. Maximum bit rate                         : 30.0 Mb/s
  15. Width                                    : 1 920 pixels
  16. Height                                   : 1 080 pixels
  17. Display aspect ratio                     : 16:9
  18. Frame rate mode                          : Constant
  19. Frame rate                               : 24.000 FPS
  20. Color space                              : YUV
  21. Chroma subsampling                       : 4:2:0
  22. Bit depth                                : 8 bits
  23. Scan type                                : Progressive
  24. Bits/(Pixel*Frame)                       : 0.557
  25. Stream size                              : 21.9 GiB (63%)
  26. Title                                    : Total.Recall.1990.REMASTERED.1080p.BluRay.REMUX.AVC.DTS-HD.MA.5.1-FGT
  27. Language                                 : English
  28. Default                                  : No
  29. Forced                                   : No
  30. Original source medium                   : Blu-ray
  31. Audio #1
  32. ID                                       : 2
  33. ID in the original source medium         : 4352 (0x1100)
  34. Format                                   : MLP FBA 16-ch
  35. Format/Info                              : Meridian Lossless Packing FBA with 16-channel presentation
  36. Commercial name                          : Dolby TrueHD with Dolby Atmos
  37. Codec ID                                 : A_TRUEHD
  38. Duration                                 : 1 h 53 min
  39. Bit rate mode                            : Variable
  40. Bit rate                                 : 3 464 kb/s
  41. Maximum bit rate                         : 5 412 kb/s
  42. Channel(s)                               : 8 channels
  43. Channel layout                           : L R C LFE Ls Rs Lb Rb
  44. Sampling rate                            : 48.0 kHz
  45. Frame rate                               : 1 200.000 FPS (40 SPF)
  46. Compression mode                         : Lossless
  47. Stream size                              : 2.74 GiB (8%)
  48. Title                                    : Total.Recall.1990.REMASTERED.1080p.BluRay.REMUX.AVC.DTS-HD.MA.5.1-FGT
  49. Language                                 : English
  50. Default                                  : Yes
  51. Forced                                   : No
  52. Original source medium                   : Blu-ray
  53. Number of dynamic objects                : 11
  54. Bed channel count                        : 1 channel
  55. Bed channel configuration                : LFE
  56. Audio #2
  57. ID                                       : 3
  58. Format                                   : DTS XLL
  59. Format/Info                              : Digital Theater Systems
  60. Commercial name                          : DTS-HD Master Audio
  61. Codec ID                                 : A_DTS
  62. Duration                                 : 1 h 53 min
  63. Bit rate mode                            : Variable
  64. Bit rate                                 : 3 793 kb/s
  65. Channel(s)                               : 8 channels
  66. Channel layout                           : C L R LFE Lb Rb Lss Rss
  67. Sampling rate                            : 48.0 kHz
  68. Frame rate                               : 93.750 FPS (512 SPF)
  69. Bit depth                                : 24 bits
  70. Compression mode                         : Lossless
  71. Stream size                              : 3.00 GiB (9%)
  72. Title                                    : Total.Recall.1990.REMASTERED.1080p.BluRay.REMUX.AVC.DTS-HD.MA.5.1-FGT
  73. Language                                 : English
  74. Default                                  : No
  75. Forced                                   : No
  76. Audio #3
  77. ID                                       : 4
  78. ID in the original source medium         : 4352 (0x1100)
  79. Format                                   : AC-3
  80. Format/Info                              : Audio Coding 3
  81. Commercial name                          : Dolby Digital
  82. Codec ID                                 : A_AC3
  83. Duration                                 : 1 h 53 min
  84. Bit rate mode                            : Constant
  85. Bit rate                                 : 384 kb/s
  86. Channel(s)                               : 6 channels
  87. Channel layout                           : L R C LFE Ls Rs
  88. Sampling rate                            : 48.0 kHz
  89. Frame rate                               : 31.250 FPS (1536 SPF)
  90. Compression mode                         : Lossy
  91. Stream size                              : 311 MiB (1%)
  92. Title                                    : Total.Recall.1990.REMASTERED.1080p.BluRay.REMUX.AVC.DTS-HD.MA.5.1-FGT
  93. Language                                 : English
  94. Service kind                             : Complete Main
  95. Default                                  : No
  96. Forced                                   : No
  97. Original source medium                   : Blu-ray
  98. Audio #4
  99. ID                                       : 5
  100. ID in the original source medium         : 4353 (0x1101)
  101. Format                                   : DTS
  102. Format/Info                              : Digital Theater Systems
  103. Codec ID                                 : A_DTS
  104. Duration                                 : 1 h 53 min
  105. Bit rate mode                            : Constant
  106. Bit rate                                 : 768 kb/s
  107. Channel(s)                               : 2 channels
  108. Channel layout                           : L R
  109. Sampling rate                            : 48.0 kHz
  110. Frame rate                               : 93.750 FPS (512 SPF)
  111. Bit depth                                : 24 bits
  112. Compression mode                         : Lossy
  113. Stream size                              : 622 MiB (2%)
  114. Title                                    : Total.Recall.1990.REMASTERED.1080p.BluRay.REMUX.AVC.DTS-HD.MA.5.1-FGT
  115. Language                                 : English
  116. Default                                  : No
  117. Forced                                   : No
  118. Original source medium                   : Blu-ray
  119. Audio #5
  120. ID                                       : 6
  121. ID in the original source medium         : 4354 (0x1102)
  122. Format                                   : DTS XLL
  123. Format/Info                              : Digital Theater Systems
  124. Commercial name                          : DTS-HD Master Audio
  125. Codec ID                                 : A_DTS
  126. Duration                                 : 1 h 53 min
  127. Bit rate mode                            : Variable
  128. Bit rate                                 : 2 231 kb/s
  129. Channel(s)                               : 6 channels
  130. Channel layout                           : C L R Ls Rs LFE
  131. Sampling rate                            : 48.0 kHz
  132. Frame rate                               : 93.750 FPS (512 SPF)
  133. Bit depth                                : 16 bits
  134. Compression mode                         : Lossless
  135. Stream size                              : 1.77 GiB (5%)
  136. Title                                    : Total.Recall.1990.REMASTERED.1080p.BluRay.REMUX.AVC.DTS-HD.MA.5.1-FGT
  137. Language                                 : French
  138. Default                                  : No
  139. Forced                                   : No
  140. Original source medium                   : Blu-ray
  141. Audio #6
  142. ID                                       : 7
  143. ID in the original source medium         : 4355 (0x1103)
  144. Format                                   : DTS XLL
  145. Format/Info                              : Digital Theater Systems
  146. Commercial name                          : DTS-HD Master Audio
  147. Codec ID                                 : A_DTS
  148. Duration                                 : 1 h 53 min
  149. Bit rate mode                            : Variable
  150. Bit rate                                 : 2 388 kb/s
  151. Channel(s)                               : 6 channels
  152. Channel layout                           : C L R Ls Rs LFE
  153. Sampling rate                            : 48.0 kHz
  154. Frame rate                               : 93.750 FPS (512 SPF)
  155. Bit depth                                : 16 bits
  156. Compression mode                         : Lossless
  157. Stream size                              : 1.89 GiB (5%)
  158. Title                                    : Total.Recall.1990.REMASTERED.1080p.BluRay.REMUX.AVC.DTS-HD.MA.5.1-FGT
  159. Language                                 : German
  160. Default                                  : No
  161. Forced                                   : No
  162. Original source medium                   : Blu-ray
  163. Audio #7
  164. ID                                       : 8
  165. ID in the original source medium         : 4356 (0x1104)
  166. Format                                   : PCM
  167. Format settings                          : Little / Signed
  168. Codec ID                                 : A_PCM/INT/LIT
  169. Duration                                 : 1 h 53 min
  170. Bit rate mode                            : Constant
  171. Bit rate                                 : 2 304 kb/s
  172. Channel(s)                               : 2 channels
  173. Sampling rate                            : 48.0 kHz
  174. Frame rate                               : 30.000 FPS (1600 SPF)
  175. Bit depth                                : 24 bits
  176. Stream size                              : 1.82 GiB (5%)
  177. Title                                    : Total.Recall.1990.REMASTERED.1080p.BluRay.REMUX.AVC.DTS-HD.MA.5.1-FGT
  178. Language                                 : German
  179. Default                                  : No
  180. Forced                                   : No
  181. Original source medium                   : Blu-ray
  182. Audio #8
  183. ID                                       : 9
  184. ID in the original source medium         : 4357 (0x1105)
  185. Format                                   : DTS
  186. Format/Info                              : Digital Theater Systems
  187. Codec ID                                 : A_DTS
  188. Duration                                 : 1 h 53 min
  189. Bit rate mode                            : Constant
  190. Bit rate                                 : 768 kb/s
  191. Channel(s)                               : 2 channels
  192. Channel layout                           : L R
  193. Sampling rate                            : 48.0 kHz
  194. Frame rate                               : 93.750 FPS (512 SPF)
  195. Bit depth                                : 24 bits
  196. Compression mode                         : Lossy
  197. Stream size                              : 622 MiB (2%)
  198. Title                                    : Total.Recall.1990.REMASTERED.1080p.BluRay.REMUX.AVC.DTS-HD.MA.5.1-FGT
  199. Language                                 : Spanish
  200. Default                                  : No
  201. Forced                                   : No
  202. Original source medium                   : Blu-ray
  203. Audio #9
  204. ID                                       : 10
  205. ID in the original source medium         : 4358 (0x1106)
  206. Format                                   : DTS
  207. Format/Info                              : Digital Theater Systems
  208. Codec ID                                 : A_DTS
  209. Duration                                 : 1 h 53 min
  210. Bit rate mode                            : Constant
  211. Bit rate                                 : 255 kb/s
  212. Channel(s)                               : 2 channels
  213. Channel layout                           : L R
  214. Sampling rate                            : 48.0 kHz
  215. Frame rate                               : 93.750 FPS (512 SPF)
  216. Bit depth                                : 24 bits
  217. Compression mode                         : Lossy
  218. Stream size                              : 207 MiB (1%)
  219. Title                                    : Total.Recall.1990.REMASTERED.1080p.BluRay.REMUX.AVC.DTS-HD.MA.5.1-FGT
  220. Language                                 : English
  221. Default                                  : No
  222. Forced                                   : No
  223. Original source medium                   : Blu-ray
  224. Text #1
  225. ID                                       : 11
  226. Format                                   : UTF-8
  227. Codec ID                                 : S_TEXT/UTF8
  228. Codec ID/Info                            : UTF-8 Plain Text
  229. Duration                                 : 1 h 45 min
  230. Bit rate                                 : 47 b/s
  231. Count of elements                        : 1070
  232. Stream size                              : 37.0 KiB (0%)
  233. Title                                    : English-SRT
  234. Language                                 : English
  235. Default                                  : Yes
  236. Forced                                   : No
  237. Text #2
  238. ID                                       : 12
  239. ID in the original source medium         : 4608 (0x1200)
  240. Format                                   : PGS
  241. Muxing mode                              : zlib
  242. Codec ID                                 : S_HDMV/PGS
  243. Codec ID/Info                            : Picture based subtitle format used on BDs/HD-DVDs
  244. Duration                                 : 1 h 49 min
  245. Bit rate                                 : 25.9 kb/s
  246. Count of elements                        : 2216
  247. Stream size                              : 20.2 MiB (0%)
  248. Title                                    : French-PGS
  249. Language                                 : French
  250. Default                                  : No
  251. Forced                                   : No
  252. Original source medium                   : Blu-ray
  253. Text #3
  254. ID                                       : 13
  255. ID in the original source medium         : 4609 (0x1201)
  256. Format                                   : PGS
  257. Muxing mode                              : zlib
  258. Codec ID                                 : S_HDMV/PGS
  259. Codec ID/Info                            : Picture based subtitle format used on BDs/HD-DVDs
  260. Duration                                 : 1 h 49 min
  261. Bit rate                                 : 29.9 kb/s
  262. Count of elements                        : 1776
  263. Stream size                              : 23.3 MiB (0%)
  264. Title                                    : German-PGS
  265. Language                                 : German
  266. Default                                  : No
  267. Forced                                   : No
  268. Original source medium                   : Blu-ray
  269. Text #4
  270. ID                                       : 14
  271. ID in the original source medium         : 4610 (0x1202)
  272. Format                                   : PGS
  273. Muxing mode                              : zlib
  274. Codec ID                                 : S_HDMV/PGS
  275. Codec ID/Info                            : Picture based subtitle format used on BDs/HD-DVDs
  276. Duration                                 : 1 h 45 min
  277. Bit rate                                 : 32.3 kb/s
  278. Count of elements                        : 2274
  279. Stream size                              : 24.4 MiB (0%)
  280. Title                                    : English-PGS
  281. Language                                 : English
  282. Default                                  : No
  283. Forced                                   : No
  284. Original source medium                   : Blu-ray
  285. Text #5
  286. ID                                       : 15
  287. ID in the original source medium         : 4611 (0x1203)
  288. Format                                   : PGS
  289. Muxing mode                              : zlib
  290. Codec ID                                 : S_HDMV/PGS
  291. Codec ID/Info                            : Picture based subtitle format used on BDs/HD-DVDs
  292. Duration                                 : 1 h 45 min
  293. Bit rate                                 : 27.3 kb/s
  294. Count of elements                        : 2254
  295. Stream size                              : 20.5 MiB (0%)
  296. Title                                    : Spanish-PGS
  297. Language                                 : Spanish
  298. Default                                  : No
  299. Forced                                   : No
  300. Original source medium                   : Blu-ray
  301. Text #6
  302. ID                                       : 16
  303. ID in the original source medium         : 4612 (0x1204)
  304. Format                                   : PGS
  305. Muxing mode                              : zlib
  306. Codec ID                                 : S_HDMV/PGS
  307. Codec ID/Info                            : Picture based subtitle format used on BDs/HD-DVDs
  308. Duration                                 : 1 h 52 min
  309. Bit rate                                 : 49.4 kb/s
  310. Count of elements                        : 3132
  311. Stream size                              : 39.9 MiB (0%)
  312. Title                                    : French-FORCED-PGS
  313. Language                                 : French
  314. Default                                  : No
  315. Forced                                   : No
  316. Original source medium                   : Blu-ray
  317. Text #7
  318. ID                                       : 17
  319. ID in the original source medium         : 4613 (0x1205)
  320. Format                                   : PGS
  321. Muxing mode                              : zlib
  322. Codec ID                                 : S_HDMV/PGS
  323. Codec ID/Info                            : Picture based subtitle format used on BDs/HD-DVDs
  324. Duration                                 : 1 h 52 min
  325. Bit rate                                 : 55.3 kb/s
  326. Count of elements                        : 2770
  327. Stream size                              : 44.7 MiB (0%)
  328. Title                                    : German-FORCED-PGS
  329. Language                                 : German
  330. Default                                  : No
  331. Forced                                   : No
  332. Original source medium                   : Blu-ray
  333. Menu
  334. 00:00:00.000                             : en:Chapter 01
  335. 00:05:50.583                             : en:Chapter 02
  336. 00:11:25.375                             : en:Chapter 03
  337. 00:18:13.916                             : en:Chapter 04
  338. 00:24:50.916                             : en:Chapter 05
  339. 00:29:37.625                             : en:Chapter 06
  340. 00:37:05.875                             : en:Chapter 07
  341. 00:43:12.416                             : en:Chapter 08
  342. 00:48:35.666                             : en:Chapter 09
  343. 00:55:02.041                             : en:Chapter 10
  344. 01:00:03.916                             : en:Chapter 11
  345. 01:15:21.166                             : en:Chapter 12
  346. 01:20:16.625                             : en:Chapter 13
  347. 01:27:07.083                             : en:Chapter 14
  348. 01:32:18.458                             : en:Chapter 15
  349. 01:39:53.041                             : en:Chapter 16
复制代码





                                       
                                       

                                       
                                       
                                       




回复

使用道具 举报

懒得打字嘛,点击右侧快捷回复 【右侧内容,后台自定义】
您需要登录后才可以回帖 登录 | 立即加入

本版积分规则

Archiver|小黑屋| 蓝光电影网 |网站地图

Copyright © 2021 Comsenz Inc. Powered by 蓝光电影网

蓝光电影网

本站内容由用户自主分享和转载自互联网,转载目的在于传递更多信息,并不代表本网赞同其观点和对其真实性负责。

如有侵权、违反国家法律政策行为,请联系我们,我们会第一时间及时清除和处理!

举报反馈邮箱:[email protected]

快速回复 返回顶部 返回列表