找回密码

蓝光电影网

查看: 15|回复: 0

[动作] 钢铁侠/钢铁人 Iron.Man.2008.REMASTERED.1080p.BluRay.x264.TrueHD.7.1.Atmos-SWTYBLZ 19.01GB

[复制链接]
蓝光币
682
发表于 2019-8-10 04:57:55 | 显示全部楼层 |阅读模式


◎译  名 钢铁侠 / 钢铁人(台) / 铁人 / 铁甲奇侠(港)
◎片  名 Iron Man
◎年  代 2008
◎产  地 美国
◎类  别 行动 / 科幻 / 惊悚 / 冒险
◎语  言 英语 / 波斯语 / 乌尔都语 / 阿拉伯语
◎上映日期 2008-04-14(悉尼首映) / 2008-04-30(中国大陆) / 2008-05-02(美国)
◎IMDb评分  7.9/10 from 873040 users
◎IMDb链接  http://www.imdb.com/title/tt0371746
◎豆瓣评分 8.2/10 from 397473 users
◎豆瓣链接 https://movie.douban.com/subject/1432146/
◎片  长 126 分钟
◎导  演 乔恩·费儒 Jon Favreau
◎编  剧 特·马库姆 Art Marcum / 马特?霍洛维 Matt Holloway / 马克·弗格斯 Mark Fergus / 霍克·奥斯比 Hawk Ostby
◎主  演 小罗伯特·唐尼 Robert Downey Jr.
      泰伦斯·霍华德 Terrence Howard
      格温妮斯·帕特洛 Gwyneth Paltrow
      杰夫·布里吉斯 Jeff Bridges
      莱丝莉·比伯 Leslie Bibb
      肖恩·托布  Shaun Toub
      保罗·贝坦尼 Paul Bettany
      乔恩·费儒 Jon Favreau
      克拉克·格雷格 Clark Gregg

◎标  签 科幻 | 美国 | 行动 | 超级豪杰 | 漫威 | marvel | 2008 | 漫画改编
◎简  介  
  斯塔克军械公司是美军在全球范围内第一雄师火供给商,其新任掌门人托尼?斯塔克(小罗伯特·唐尼 Robert Downey Jr. 饰)风骚倜傥,天资聪慧。他与公司元老俄巴迪亚?斯坦(杰夫·布里吉斯 Jeff Bridges 饰)合作无间,配合将斯塔克公司的营业推向颠峰。现 实生活中的托尼热衷收集宝贵跑车,搞点儿发现缔造,固然露珠姻缘更不成少。所幸他身旁有维吉尼亚?波茨(格温妮斯·帕特洛 Gwyneth Paltrow 饰)这样的好助手仔细打理一切,才让他能自在安闲过着贵令郎的生活。
在前往中东为军方展现新型兵器的途中,托尼一众遭到可骇份子攻击。他被弹片击中几乎丧命,在英森博士的帮助下,托尼体内移植了一颗核动力的野生心脏。可骇份子要求托尼制造强大的杀伤性兵器,他和英森虚与委蛇,黑暗制造了一套由聚变能源驱动的钢铁盔甲。穿上盔甲托尼大闹可骇份子的基地,回到美国后又对其停止了改良。却不知,接下来有更加黑暗的诡计等着他……
◎获奖情况  
  第81届奥斯卡金像奖(2009)
  最好视觉结果(提名) 约翰·尼尔森 / Ben Snow / 丹尼尔·萨迪克 / Shane Mahan
  最好音效剪辑(提名) Frank E. Eulner / 克里斯托弗·博伊斯
  第18届MTV电影奖(2009)
  MTV电影奖 年度电影(提名)
  MTV电影奖 最好男演员(提名) 小罗伯特·唐尼
  第17届MTV电影奖(2008)
  MTV电影奖 迄今最好暑期电影
  第9届美国电影学会奖(2008)
  年度佳片

  1. Video
  2. ID                                       : 1
  3. Format                                   : AVC
  4. Format/Info                              : Advanced Video Codec
  5. Format profile                           : [email protected]
  6. Format settings                          : CABAC / 5 Ref Frames
  7. Format settings, CABAC                   : Yes
  8. Format settings, Reference frames        : 5 frames
  9. Codec ID                                 : V_MPEG4/ISO/AVC
  10. Duration                                 : 2 h 6 min
  11. Bit rate                                 : 16.1 Mb/s
  12. Width                                    : 1 920 pixels
  13. Height                                   : 800 pixels
  14. Display aspect ratio                     : 2.40:1
  15. Frame rate mode                          : Constant
  16. Frame rate                               : 23.976 (24000/1001) FPS
  17. Color space                              : YUV
  18. Chroma subsampling                       : 4:2:0
  19. Bit depth                                : 8 bits
  20. Scan type                                : Progressive
  21. Bits/(Pixel*Frame)                       : 0.437
  22. Stream size                              : 14.2 GiB (74%)
  23. Title                                    : Iron.Man.2008.REMASTERED.1080p.BluRay.x264.TrueHD.7.1.Atmos-SWTYBLZ
  24. Writing library                          : x264 core 157 r2935 545de2f
  25. Encoding settings                        : cabac=1 / ref=5 / deblock=1:-1:-1 / analyse=0x3:0x133 / me=umh / subme=10 / psy=1 / psy_rd=1.00:0.15 / mixed_ref=1 / me_range=48 / chroma_me=1 / trellis=2 / 8x8dct=1 / cqm=0 / deadzone=21,11 / fast_pskip=1 / chroma_qp_offset=-3 / threads=25 / lookahead_threads=4 / sliced_threads=0 / nr=0 / decimate=0 / interlaced=0 / bluray_compat=0 / constrained_intra=0 / bframes=8 / b_pyramid=2 / b_adapt=2 / b_bias=0 / direct=3 / weightb=1 / open_gop=0 / weightp=2 / keyint=250 / keyint_min=23 / scenecut=40 / intra_refresh=0 / rc_lookahead=60 / rc=crf / mbtree=1 / crf=13.0 / qcomp=0.60 / qpmin=0 / qpmax=69 / qpstep=4 / ip_ratio=1.40 / aq=1:1.00
  26. Default                                  : Yes
  27. Forced                                   : No
  28. Audio #1
  29. ID                                       : 2
  30. Format                                   : MLP FBA 16-ch
  31. Format/Info                              : Meridian Lossless Packing FBA with 16-channel presentation
  32. Commercial name                          : Dolby TrueHD with Dolby Atmos
  33. Codec ID                                 : A_TRUEHD
  34. Duration                                 : 2 h 6 min
  35. Bit rate mode                            : Variable
  36. Bit rate                                 : 4 725 kb/s
  37. Maximum bit rate                         : 7 551 kb/s
  38. Channel(s)                               : 8 channels
  39. Channel layout                           : L R C LFE Ls Rs Lb Rb
  40. Sampling rate                            : 48.0 kHz
  41. Frame rate                               : 1 200.000 FPS (40 SPF)
  42. Compression mode                         : Lossless
  43. Stream size                              : 4.16 GiB (22%)
  44. Title                                    : Iron.Man.2008.REMASTERED.1080p.BluRay.x264.TrueHD.7.1.Atmos-SWTYBLZ
  45. Language                                 : English
  46. Default                                  : Yes
  47. Forced                                   : No
  48. Number of dynamic objects                : 13
  49. Bed channel count                        : 1 channel
  50. Bed channel configuration                : LFE
  51. Audio #2
  52. ID                                       : 3
  53. Format                                   : AC-3
  54. Format/Info                              : Audio Coding 3
  55. Commercial name                          : Dolby Digital
  56. Codec ID                                 : A_AC3
  57. Duration                                 : 2 h 6 min
  58. Bit rate mode                            : Constant
  59. Bit rate                                 : 640 kb/s
  60. Channel(s)                               : 6 channels
  61. Channel layout                           : L R C LFE Ls Rs
  62. Sampling rate                            : 48.0 kHz
  63. Frame rate                               : 31.250 FPS (1536 SPF)
  64. Bit depth                                : 16 bits
  65. Compression mode                         : Lossy
  66. Stream size                              : 577 MiB (3%)
  67. Title                                    : Iron.Man.2008.REMASTERED.1080p.BluRay.x264.TrueHD.7.1.Atmos-SWTYBLZ
  68. Language                                 : English
  69. Service kind                             : Complete Main
  70. Default                                  : No
  71. Forced                                   : No
  72. Text #1
  73. ID                                       : 4
  74. Format                                   : UTF-8
  75. Codec ID                                 : S_TEXT/UTF8
  76. Codec ID/Info                            : UTF-8 Plain Text
  77. Duration                                 : 1 h 3 min
  78. Bit rate                                 : 1 b/s
  79. Count of elements                        : 38
  80. Stream size                              : 750 Bytes (0%)
  81. Title                                    : English-FORCED-SRT
  82. Language                                 : English
  83. Default                                  : Yes
  84. Forced                                   : Yes
  85. Text #2
  86. ID                                       : 5
  87. Format                                   : UTF-8
  88. Codec ID                                 : S_TEXT/UTF8
  89. Codec ID/Info                            : UTF-8 Plain Text
  90. Duration                                 : 2 h 4 min
  91. Bit rate                                 : 58 b/s
  92. Count of elements                        : 1357
  93. Stream size                              : 53.1 KiB (0%)
  94. Title                                    : English-SRT
  95. Language                                 : English
  96. Default                                  : No
  97. Forced                                   : No
  98. Text #3
  99. ID                                       : 6
  100. Format                                   : PGS
  101. Muxing mode                              : zlib
  102. Codec ID                                 : S_HDMV/PGS
  103. Codec ID/Info                            : Picture based subtitle format used on BDs/HD-DVDs
  104. Duration                                 : 1 h 3 min
  105. Bit rate                                 : 729 b/s
  106. Count of elements                        : 73
  107. Stream size                              : 339 KiB (0%)
  108. Title                                    : English-FORCED-PGS
  109. Language                                 : English
  110. Default                                  : No
  111. Forced                                   : No
  112. Text #4
  113. ID                                       : 7
  114. Format                                   : PGS
  115. Muxing mode                              : zlib
  116. Codec ID                                 : S_HDMV/PGS
  117. Codec ID/Info                            : Picture based subtitle format used on BDs/HD-DVDs
  118. Duration                                 : 2 h 4 min
  119. Bit rate                                 : 33.9 kb/s
  120. Count of elements                        : 2678
  121. Stream size                              : 30.1 MiB (0%)
  122. Title                                    : English-PGS
  123. Language                                 : English
  124. Default                                  : No
  125. Forced                                   : No
  126. Text #5
  127. ID                                       : 8
  128. Format                                   : PGS
  129. Muxing mode                              : zlib
  130. Codec ID                                 : S_HDMV/PGS
  131. Codec ID/Info                            : Picture based subtitle format used on BDs/HD-DVDs
  132. Duration                                 : 2 h 4 min
  133. Bit rate                                 : 44.7 kb/s
  134. Count of elements                        : 2999
  135. Stream size                              : 39.9 MiB (0%)
  136. Title                                    : English-PGS
  137. Language                                 : English
  138. Default                                  : No
  139. Forced                                   : No
  140. Text #6
  141. ID                                       : 9
  142. Format                                   : PGS
  143. Muxing mode                              : zlib
  144. Codec ID                                 : S_HDMV/PGS
  145. Codec ID/Info                            : Picture based subtitle format used on BDs/HD-DVDs
  146. Duration                                 : 2 h 4 min
  147. Bit rate                                 : 38.1 kb/s
  148. Count of elements                        : 2685
  149. Stream size                              : 34.0 MiB (0%)
  150. Title                                    : French-PGS
  151. Language                                 : French
  152. Default                                  : No
  153. Forced                                   : No
  154. Text #7
  155. ID                                       : 10
  156. Format                                   : PGS
  157. Muxing mode                              : zlib
  158. Codec ID                                 : S_HDMV/PGS
  159. Codec ID/Info                            : Picture based subtitle format used on BDs/HD-DVDs
  160. Duration                                 : 2 h 4 min
  161. Bit rate                                 : 36.5 kb/s
  162. Count of elements                        : 2689
  163. Stream size                              : 32.6 MiB (0%)
  164. Title                                    : Italian-PGS
  165. Language                                 : Italian
  166. Default                                  : No
  167. Forced                                   : No
  168. Text #8
  169. ID                                       : 11
  170. Format                                   : PGS
  171. Muxing mode                              : zlib
  172. Codec ID                                 : S_HDMV/PGS
  173. Codec ID/Info                            : Picture based subtitle format used on BDs/HD-DVDs
  174. Duration                                 : 2 h 4 min
  175. Bit rate                                 : 28.5 kb/s
  176. Count of elements                        : 2529
  177. Stream size                              : 25.4 MiB (0%)
  178. Title                                    : Norwegian-PGS
  179. Language                                 : Norwegian
  180. Default                                  : No
  181. Forced                                   : No
  182. Text #9
  183. ID                                       : 12
  184. Format                                   : PGS
  185. Muxing mode                              : zlib
  186. Codec ID                                 : S_HDMV/PGS
  187. Codec ID/Info                            : Picture based subtitle format used on BDs/HD-DVDs
  188. Duration                                 : 2 h 4 min
  189. Bit rate                                 : 33.4 kb/s
  190. Count of elements                        : 2569
  191. Stream size                              : 29.8 MiB (0%)
  192. Title                                    : Swedish-PGS
  193. Language                                 : Swedish
  194. Default                                  : No
  195. Forced                                   : No
  196. Menu
  197. 00:00:00.000                             : en:Chapter 01
  198. 00:09:04.169                             : en:Chapter 02
  199. 00:17:58.577                             : en:Chapter 03
  200. 00:26:47.940                             : en:Chapter 04
  201. 00:34:59.848                             : en:Chapter 05
  202. 00:43:13.257                             : en:Chapter 06
  203. 00:52:36.487                             : en:Chapter 07
  204. 00:59:22.642                             : en:Chapter 08
  205. 01:07:30.421                             : en:Chapter 09
  206. 01:11:42.298                             : en:Chapter 10
  207. 01:18:29.204                             : en:Chapter 11
  208. 01:24:38.573                             : en:Chapter 12
  209. 01:34:58.109                             : en:Chapter 13
  210. 01:44:27.344                             : en:Chapter 14
  211. 01:53:29.469                             : en:Chapter 15
复制代码






                                       
                                       

                                       
                                       
                                       




回复

使用道具 举报

懒得打字嘛,点击右侧快捷回复 【右侧内容,后台自定义】
您需要登录后才可以回帖 登录 | 立即加入

本版积分规则

Archiver|小黑屋| 蓝光电影网 |网站地图

Copyright © 2021 Comsenz Inc. Powered by 蓝光电影网

蓝光电影网

本站内容由用户自主分享和转载自互联网,转载目的在于传递更多信息,并不代表本网赞同其观点和对其真实性负责。

如有侵权、违反国家法律政策行为,请联系我们,我们会第一时间及时清除和处理!

举报反馈邮箱:[email protected]

快速回复 返回顶部 返回列表