找回密码

蓝光电影网

查看: 16|回复: 0

[喜剧] 飞越美人谷 Beyond.the.Valley.of.the.Dolls.1970.1080p.BluRay.X264-AMIABLE 7.65GB

[复制链接]
蓝光币
515
发表于 2020-12-2 08:27:41 | 显示全部楼层 |阅读模式


◎译  名 飞越美人谷
◎片  名 Beyond the Valley of the Dolls
◎年  代 1970
◎产  地 美国
◎类  别 笑剧 / 音乐
◎语  言 英语
◎上映日期 1970-11-14
◎IMDb评分  6.2/10 from 9960 users
◎IMDb链接  https://www.imdb.com/title/tt0065466/
◎豆瓣评分 6.3/10 from 384 users
◎豆瓣链接 https://movie.douban.com/subject/1298861/
◎片  长 109 分钟
◎导  演 罗斯·梅尔 Russ Meyer
◎编  剧 罗杰·伊伯特 Roger Ebert / 罗斯·梅尔 Russ Meyer / 蔷薇
◎主  演 多莉·里德 Dolly Read
       辛西娅·迈尔斯 Cynthia Myers
       玛西亚·麦克布朗 Marcia McBroom
       约翰?拉扎尔 John Lazar
       迈克尔·布洛杰特 Michael Blodgett
       达维德·古里安 David Gurian
       爱蒂·威廉斯 Edy Williams
       埃里卡.加文 Erica Gavin
       菲利斯·戴维斯 Phyllis Davis
       哈里森·佩吉 Harrison Page
       Patrick Garner
       詹姆斯·伊格尔哈特 James Iglehart
       邓肯·麦克劳德 Duncan McLeod
       查尔斯·纳佩尔 Charles Napier
       拉瑞恩·纽曼 Laraine Newman
◎标  签 美国 | 情色 | 1970s | Cult | 美国电影 | 1970 | RussMeyer | 嬉皮士电影
◎简  介


  三个青春无敌美少女,不惜一切勇闯荷里活,一心成为明日之星。但是除了支出尽力,她们还牵扯毒品、酒精、性爱、甚至同性恋。可贵遇上伯乐,她们的司理报酬她们谱上一段纷歧样的人生。正当她们沉溺于灯红酒绿的酒池欲林之际... Hollywood Vixens(1970)
  1. Video
  2. ID                                       : 1
  3. Format                                   : AVC
  4. Format/Info                              : Advanced Video Codec
  5. Format profile                           : [email protected]
  6. Format settings                          : CABAC / 5 Ref Frames
  7. Format settings, CABAC                   : Yes
  8. Format settings, Reference frames        : 5 frames
  9. Codec ID                                 : V_MPEG4/ISO/AVC
  10. Duration                                 : 1 h 49 min
  11. Bit rate                                 : 9 400 kb/s
  12. Width                                    : 1 920 pixels
  13. Height                                   : 816 pixels
  14. Display aspect ratio                     : 2.35:1
  15. Frame rate mode                          : Constant
  16. Frame rate                               : 23.976 (24000/1001/189150) FPS
  17. Color space                              : YUV
  18. Chroma subsampling                       : 4:2:0
  19. Bit depth                                : 8 bits
  20. Scan type                                : Progressive
  21. Bits/(Pixel*Frame)                       : 0.250
  22. Stream size                              : 7.01 GiB (92%)
  23. Writing library                          : x264 core 148 r2638 7599210
  24. Encoding settings                        : cabac=1 / ref=5 / deblock=1:-3:-3 / analyse=0x3:0x113 / me=umh / subme=8 / psy=1 / psy_rd=1.05:0.00 / mixed_ref=1 / me_range=32 / chroma_me=1 / trellis=1 / 8x8dct=1 / cqm=0 / deadzone=21,11 / fast_pskip=1 / chroma_qp_offset=-2 / threads=6 / lookahead_threads=1 / sliced_threads=0 / nr=0 / decimate=1 / interlaced=0 / bluray_compat=0 / constrained_intra=0 / bframes=3 / b_pyramid=2 / b_adapt=2 / b_bias=0 / direct=3 / weightb=1 / open_gop=0 / weightp=2 / keyint=240 / keyint_min=24 / scenecut=40 / intra_refresh=0 / rc_lookahead=50 / rc=2pass / mbtree=1 / bitrate=9400 / ratetol=1.0 / qcomp=0.60 / qpmin=0 / qpmax=69 / qpstep=4 / cplxblur=20.0 / qblur=0.5 / ip_ratio=1.40 / aq=3:0.80
  25. Language                                 : English
  26. Default                                  : Yes
  27. Forced                                   : No
  28. Statistics Tags Issue                    : no_variable_data 1970-01-01 00:00:00 / no_variable_data 2010-02-22 21:41:29
  29. FromStats_BitRate                        : 9399866
  30. FromStats_Duration                       : 01:49:05.748000000
  31. FromStats_FrameCount                     : 156941
  32. FromStats_StreamSize                     : 7691144688

  33. Audio
  34. ID                                       : 2
  35. Format                                   : AC-3
  36. Format/Info                              : Audio Coding 3
  37. Commercial name                          : Dolby Digital
  38. Codec ID                                 : A_AC3
  39. Duration                                 : 1 h 49 min
  40. Bit rate mode                            : Constant
  41. Bit rate                                 : 640 kb/s
  42. Channel(s)                               : 1 channel
  43. Channel layout                           : C
  44. Sampling rate                            : 48.0 kHz
  45. Frame rate                               : 31.250 FPS (1536 SPF)
  46. Compression mode                         : Lossy
  47. Stream size                              : 499 MiB (6%)
  48. Language                                 : English
  49. Service kind                             : Complete Main
  50. Default                                  : Yes
  51. Forced                                   : No
  52. Statistics Tags Issue                    : no_variable_data 1970-01-01 00:00:00 / no_variable_data 2010-02-22 21:41:29
  53. FromStats_BitRate                        : 640000
  54. FromStats_Duration                       : 01:49:05.728000000
  55. FromStats_FrameCount                     : 204554
  56. FromStats_StreamSize                     : 523658240

  57. Text #1
  58. ID                                       : 3
  59. Format                                   : UTF-8
  60. Codec ID                                 : S_TEXT/UTF8
  61. Codec ID/Info                            : UTF-8 Plain Text
  62. Language                                 : English
  63. Default                                  : No
  64. Forced                                   : No
  65. Statistics Tags Issue                    : no_variable_data 1970-01-01 00:00:00 / no_variable_data 2010-02-22 21:41:29
  66. FromStats_BitRate                        : 69
  67. FromStats_Duration                       : 01:45:27.445000000
  68. FromStats_FrameCount                     : 1254
  69. FromStats_StreamSize                     : 54854

  70. Text #2
  71. ID                                       : 4
  72. Format                                   : UTF-8
  73. Codec ID                                 : S_TEXT/UTF8
  74. Codec ID/Info                            : UTF-8 Plain Text
  75. Title                                    : SDH
  76. Language                                 : English
  77. Default                                  : No
  78. Forced                                   : No
  79. Statistics Tags Issue                    : no_variable_data 1970-01-01 00:00:00 / no_variable_data 2010-02-22 21:41:29
  80. FromStats_BitRate                        : 70
  81. FromStats_Duration                       : 01:48:19.826000000
  82. FromStats_FrameCount                     : 1323
  83. FromStats_StreamSize                     : 57075

  84. Menu
  85. 00:00:00.000                             : en:00:00:00.000
  86. 00:08:56.536                             : en:00:08:56.536
  87. 00:18:12.633                             : en:00:18:12.633
  88. 00:26:57.407                             : en:00:26:57.407
  89. 00:37:27.370                             : en:00:37:27.370
  90. 00:46:34.375                             : en:00:46:34.375
  91. 00:55:17.397                             : en:00:55:17.397
  92. 01:06:15.513                             : en:01:06:15.513
  93. 01:12:39.564                             : en:01:12:39.564
  94. 01:24:14.383                             : en:01:24:14.383
  95. 01:34:08.518                             : en:01:34:08.518
  96. 01:41:19.657                             : en:01:41:19.657
复制代码









                                       
                                       

                                       
                                       
                                       




回复

使用道具 举报

懒得打字嘛,点击右侧快捷回复 【右侧内容,后台自定义】
您需要登录后才可以回帖 登录 | 立即加入

本版积分规则

Archiver|小黑屋| 蓝光电影网 |网站地图

Copyright © 2021 Comsenz Inc. Powered by 蓝光电影网

蓝光电影网

本站内容由用户自主分享和转载自互联网,转载目的在于传递更多信息,并不代表本网赞同其观点和对其真实性负责。

如有侵权、违反国家法律政策行为,请联系我们,我们会第一时间及时清除和处理!

举报反馈邮箱:[email protected]

快速回复 返回顶部 返回列表