找回密码

蓝光电影网

查看: 25|回复: 0

[剧情] 窗前足影 The.Shadow.on.the.Window.1957.1080p.BluRay.REMUX.AVC.DTS-HD.MA.1.0-FGT 10.71GB

[复制链接]
蓝光币
515
发表于 2019-9-18 01:04:05 | 显示全部楼层 |阅读模式


◎译  名 窗前足影
◎片  名 The Shadow on the Window
◎年  代 1957
◎产  地 美国
◎类  别 剧情 / 犯罪
◎语  言 英语
◎上映日期 1957
◎IMDb评分  6.1/10 from 229 users
◎IMDb链接  http://www.imdb.com/title/tt0049748
◎豆瓣评分 0/10 from 0 users
◎豆瓣链接 https://movie.douban.com/subject/5061322/
◎片  长 76 分钟
◎导  演 William Asher
◎编  剧 David P. Harmon
◎主  演 菲利浦·凯瑞 Philip Carey
       贝蒂·加勒特 Betty Garrett
       约翰·德鲁·巴里摩尔 John Drew Barrymore
       科里·艾伦 Corey Allen

◎标  签 黑色电影 | 50s
◎简  介  
  三名闹事青年在一位神经病患者的率领下侵入一家农舍把农民一家杀死,警官托尼在办案时发现了更不为人知的奥秘……
  1. Video
  2. ID                                       : 1
  3. Format                                   : AVC
  4. Format/Info                              : Advanced Video Codec
  5. Format profile                           : [email protected]
  6. Format settings                          : CABAC / 4 Ref Frames
  7. Format settings, CABAC                   : Yes
  8. Format settings, Reference frames        : 4 frames
  9. Codec ID                                 : V_MPEG4/ISO/AVC
  10. Duration                                 : 1 h 13 min
  11. Bit rate mode                            : Variable
  12. Bit rate                                 : 20.0 Mb/s
  13. Maximum bit rate                         : 30.0 Mb/s
  14. Width                                    : 1 920 pixels
  15. Height                                   : 1 080 pixels
  16. Display aspect ratio                     : 16:9
  17. Frame rate mode                          : Constant
  18. Frame rate                               : 23.976 (24000/1001) FPS
  19. Standard                                 : NTSC
  20. Color space                              : YUV
  21. Chroma subsampling                       : 4:2:0
  22. Bit depth                                : 8 bits
  23. Scan type                                : Progressive
  24. Bits/(Pixel*Frame)                       : 0.402
  25. Stream size                              : 10.2 GiB (96%)
  26. Title                                    : The.Shadow.on.the.Window.1957.1080p.BluRay.REMUX.AVC.DTS-HD.MA.1.0-FGT
  27. Language                                 : English
  28. Default                                  : No
  29. Forced                                   : No
  30. Color range                              : Limited
  31. Color primaries                          : BT.709
  32. Transfer characteristics                 : BT.709
  33. Matrix coefficients                      : BT.709
  34. Audio
  35. ID                                       : 2
  36. Format                                   : DTS XLL
  37. Format/Info                              : Digital Theater Systems
  38. Commercial name                          : DTS-HD Master Audio
  39. Codec ID                                 : A_DTS
  40. Duration                                 : 1 h 13 min
  41. Bit rate mode                            : Variable
  42. Bit rate                                 : 897 kb/s
  43. Channel(s)                               : 1 channel
  44. Channel layout                           : C
  45. Sampling rate                            : 48.0 kHz
  46. Frame rate                               : 93.750 FPS (512 SPF)
  47. Bit depth                                : 24 bits
  48. Compression mode                         : Lossless
  49. Stream size                              : 471 MiB (4%)
  50. Title                                    : The.Shadow.on.the.Window.1957.1080p.BluRay.REMUX.AVC.DTS-HD.MA.1.0-FGT
  51. Language                                 : English
  52. Default                                  : Yes
  53. Forced                                   : No
  54. Text
  55. ID                                       : 3
  56. Format                                   : PGS
  57. Muxing mode                              : zlib
  58. Codec ID                                 : S_HDMV/PGS
  59. Codec ID/Info                            : Picture based subtitle format used on BDs/HD-DVDs
  60. Duration                                 : 1 h 13 min
  61. Bit rate                                 : 31.3 kb/s
  62. Count of elements                        : 2383
  63. Stream size                              : 16.4 MiB (0%)
  64. Title                                    : English-PGS
  65. Language                                 : English
  66. Default                                  : Yes
  67. Forced                                   : No
  68. Menu
  69. 00:00:00.000                             : en:Chapter 01
  70. 00:01:00.435                             : en:Chapter 02
  71. 00:11:14.256                             : en:Chapter 03
  72. 00:21:57.941                             : en:Chapter 04
  73. 00:29:26.806                             : en:Chapter 05
  74. 00:37:45.554                             : en:Chapter 06
  75. 00:45:53.375                             : en:Chapter 07
  76. 01:00:32.920                             : en:Chapter 08
复制代码






                                       
                                       

                                       
                                       
                                       




回复

使用道具 举报

懒得打字嘛,点击右侧快捷回复 【右侧内容,后台自定义】
您需要登录后才可以回帖 登录 | 立即加入

本版积分规则

Archiver|小黑屋| 蓝光电影网 |网站地图

Copyright © 2021 Comsenz Inc. Powered by 蓝光电影网

蓝光电影网

本站内容由用户自主分享和转载自互联网,转载目的在于传递更多信息,并不代表本网赞同其观点和对其真实性负责。

如有侵权、违反国家法律政策行为,请联系我们,我们会第一时间及时清除和处理!

举报反馈邮箱:[email protected]

快速回复 返回顶部 返回列表