找回密码

蓝光电影网

查看: 45|回复: 0

[动作] 龙牌之谜 Journey.to.China.The.Mystery.of.Iron.Mask.2019.1080p.US.BluRay.REMUX.AVC.DTS-HD.MA.5.1-FGT 35.78GB

[复制链接]
蓝光币
515
发表于 2020-11-19 20:57:55 | 显示全部楼层 |阅读模式


◎译  名 龙牌之谜/Journey to China: The Secret of the Seal of the Dragon/Mystery of Dragon's Seal/Viy 2/Вий 2/Тайна Печати дракона: Путешествие в Китай/中国游记:龙牌之谜/魔鬼的精神2
◎片  名 Tayna pechati drakona
◎年  代 2019
◎产  地 俄罗斯,中国大陆,美国
◎类  别 行动 / 奇异 / 冒险
◎语  言 英语,俄语,汉语普通话
◎上映日期 2019-08-16(中国大陆)
◎IMDb评分  4.6/10 from 2955 users
◎IMDb链接  https://www.imdb.com/title/tt6218010/
◎豆瓣评分 3.6/10 from 14614 users
◎豆瓣链接 https://movie.douban.com/subject/26367602/
◎片  长 120分钟
◎导  演 伊哥·斯坦普陈科 Oleg Stepchenko
◎编  剧 阿列克谢·彼得鲁欣 Alexey A. Petrukhin / 伊哥·斯坦普陈科 Oleg Stepchenko
◎主  演 成龙 Jackie Chan
       阿诺·施瓦辛格 Arnold Schwarzenegger
       杰森·弗莱明 Jason Flemyng
       姚星彤 Xingtong Yao
       马丽 Li Ma
       李彧 Yu Li
       刘智福 Lance Luu
       刘智堂 Charles Luu
       刘智满 Mark Luu
       李萌萌 Mengmeng Li
       安娜·邱丽娜 Anna Churina
       尤里·科洛科利尼科夫 Yuri Kolokolnikov
       巴维尔·沃利亚 Pavel Volya
       克里斯托弗·法里班克 Christopher Fairbank
       马丁·科勒巴 Martin Klebba
       查尔斯·丹斯 Charles Dance
       鲁特格尔·哈尔 Rutger Hauer
       巴雷特·科茨 Barret Coates
       伊戈尔·日日金 Igor Jijikin
       娜露潘格慕·柴辛 Narupornkamol Chaisang
       安德烈·梅尔兹利金 Andrey Merzlikin
       维伦·巴比切夫 Vilen Babichev
       苼楠塔茬·塔纳潘披散 Sananthachat Thanapatpisal
       彼得·拉斐尔森 Peter Rafelson
       尼基塔·塔拉索夫 Nikita Tarasov
       阿列克谢·彼得鲁欣 Alexey A. Petrukhin
       葵咪莎拉·普碟 Kemisara Paladesh
       安东尼·加瓦德 Anthony Gavard
       马蒂厄·雅克 Mathieu Jaquet
       莱安德罗·梅厄·马丁内斯 Leandro Mayor Martinez
       赵婉瑜 Wanyu Zhao
       梁新展 Xinzhan Liang
       李建桥 Lijianqiao
       查雅妮·臣姗卡维 Chayanit Chansangavej
◎标  签 行动 | 奇异 | 中国 | 魔幻 | 冒险 | 2019 | 俄罗斯 | 阿诺德·施瓦辛格
◎简  介


  电影《龙牌之谜》报告了陈腐的东方传闻——龙王在睡觉的时辰睫毛长到地里可以长出茶叶。龙王把法力封印在龙牌里,并把这类气力赋予了替他顾问睫毛的白魔法大师(成龙饰)和他的女儿成兰(姚星彤饰)。邪恶的黑魔法师将白魔法大师和成兰关进了异国牢狱,龙王也堕入了沉睡,以茶叶为生的广大村民从今生活在水深炽热当中……
  1. Video
  2. ID                                       : 1
  3. ID in the original source medium         : 4113 (0x1011)
  4. Format                                   : AVC
  5. Format/Info                              : Advanced Video Codec
  6. Format profile                           : [email protected]
  7. Format settings                          : CABAC / 4 Ref Frames
  8. Format settings, CABAC                   : Yes
  9. Format settings, Reference frames        : 4 frames
  10. Codec ID                                 : V_MPEG4/ISO/AVC
  11. Duration                                 : 2 h 0 min
  12. Bit rate mode                            : Variable
  13. Bit rate                                 : 34.0 Mb/s
  14. Maximum bit rate                         : 35.5 Mb/s
  15. Width                                    : 1 920 pixels
  16. Height                                   : 1 080 pixels
  17. Display aspect ratio                     : 16:9
  18. Frame rate mode                          : Constant
  19. Frame rate                               : 23.976 (24000/1001/189150) FPS
  20. Color space                              : YUV
  21. Chroma subsampling                       : 4:2:0
  22. Bit depth                                : 8 bits
  23. Scan type                                : Progressive
  24. Bits/(Pixel*Frame)                       : 0.683
  25. Stream size                              : 28.6 GiB (80%)
  26. Title                                    : Journey.to.China.The.Mystery.of.Iron.Mask.2019.1080p.US.BluRay.REMUX.AVC.DTS-HD.MA.5.1-FGT
  27. Language                                 : English
  28. Default                                  : No
  29. Forced                                   : No
  30. Original source medium                   : Blu-ray
  31. Audio #1
  32. ID                                       : 2
  33. ID in the original source medium         : 4352 (0x1100)
  34. Format                                   : DTS XLL
  35. Format/Info                              : Digital Theater Systems
  36. Commercial name                          : DTS-HD Master Audio
  37. Codec ID                                 : A_DTS
  38. Duration                                 : 2 h 0 min
  39. Bit rate mode                            : Variable
  40. Bit rate                                 : 4 173 kb/s
  41. Channel(s)                               : 6 channels
  42. Channel layout                           : C L R Ls Rs LFE
  43. Sampling rate                            : 48.0 kHz
  44. Frame rate                               : 93.750 FPS (512 SPF)
  45. Bit depth                                : 24 bits
  46. Compression mode                         : Lossless
  47. Stream size                              : 3.52 GiB (10%)
  48. Title                                    : Journey.to.China.The.Mystery.of.Iron.Mask.2019.1080p.US.BluRay.REMUX.AVC.DTS-HD.MA.5.1-FGT
  49. Language                                 : English
  50. Default                                  : Yes
  51. Forced                                   : No
  52. Original source medium                   : Blu-ray
  53. Audio #2
  54. ID                                       : 3
  55. ID in the original source medium         : 4353 (0x1101)
  56. Format                                   : DTS XLL
  57. Format/Info                              : Digital Theater Systems
  58. Commercial name                          : DTS-HD Master Audio
  59. Codec ID                                 : A_DTS
  60. Duration                                 : 2 h 0 min
  61. Bit rate mode                            : Variable
  62. Bit rate                                 : 4 241 kb/s
  63. Channel(s)                               : 6 channels
  64. Channel layout                           : C L R Ls Rs LFE
  65. Sampling rate                            : 48.0 kHz
  66. Frame rate                               : 93.750 FPS (512 SPF)
  67. Bit depth                                : 24 bits
  68. Compression mode                         : Lossless
  69. Stream size                              : 3.57 GiB (10%)
  70. Title                                    : Journey.to.China.The.Mystery.of.Iron.Mask.2019.1080p.US.BluRay.REMUX.AVC.DTS-HD.MA.5.1-FGT
  71. Language                                 : Spanish
  72. Default                                  : No
  73. Forced                                   : No
  74. Original source medium                   : Blu-ray
  75. Text #1
  76. ID                                       : 4
  77. Format                                   : UTF-8
  78. Codec ID                                 : S_TEXT/UTF8
  79. Codec ID/Info                            : UTF-8 Plain Text
  80. Duration                                 : 1 h 52 min
  81. Bit rate                                 : 45 b/s
  82. Count of elements                        : 1255
  83. Stream size                              : 37.6 KiB (0%)
  84. Title                                    : English-SRT
  85. Language                                 : English
  86. Default                                  : Yes
  87. Forced                                   : No
  88. Text #2
  89. ID                                       : 5
  90. ID in the original source medium         : 4608 (0x1200)
  91. Format                                   : PGS
  92. Muxing mode                              : zlib
  93. Codec ID                                 : S_HDMV/PGS
  94. Codec ID/Info                            : Picture based subtitle format used on BDs/HD-DVDs
  95. Duration                                 : 1 h 52 min
  96. Bit rate                                 : 32.3 kb/s
  97. Count of elements                        : 2929
  98. Stream size                              : 25.9 MiB (0%)
  99. Title                                    : English-PGS
  100. Language                                 : English
  101. Default                                  : No
  102. Forced                                   : No
  103. Original source medium                   : Blu-ray
  104. Text #3
  105. ID                                       : 6
  106. ID in the original source medium         : 4609 (0x1201)
  107. Format                                   : PGS
  108. Muxing mode                              : zlib
  109. Codec ID                                 : S_HDMV/PGS
  110. Codec ID/Info                            : Picture based subtitle format used on BDs/HD-DVDs
  111. Duration                                 : 1 h 58 min
  112. Bit rate                                 : 26.0 kb/s
  113. Count of elements                        : 2266
  114. Stream size                              : 22.0 MiB (0%)
  115. Title                                    : Spanish-PGS
  116. Language                                 : Spanish
  117. Default                                  : No
  118. Forced                                   : No
  119. Original source medium                   : Blu-ray
  120. Text #4
  121. ID                                       : 7
  122. ID in the original source medium         : 4609 (0x1201)
  123. Format                                   : PGS
  124. Muxing mode                              : zlib
  125. Codec ID                                 : S_HDMV/PGS
  126. Codec ID/Info                            : Picture based subtitle format used on BDs/HD-DVDs
  127. Duration                                 : 12 min 32 s
  128. Bit rate                                 : 4 655 b/s
  129. Count of elements                        : 42
  130. Stream size                              : 428 KiB (0%)
  131. Title                                    : Spanish-FORCED-PGS
  132. Language                                 : Spanish
  133. Default                                  : No
  134. Forced                                   : No
  135. Original source medium                   : Blu-ray
  136. Text #5
  137. ID                                       : 8
  138. ID in the original source medium         : 4610 (0x1202)
  139. Format                                   : PGS
  140. Muxing mode                              : zlib
  141. Codec ID                                 : S_HDMV/PGS
  142. Codec ID/Info                            : Picture based subtitle format used on BDs/HD-DVDs
  143. Duration                                 : 1 h 58 min
  144. Bit rate                                 : 26.5 kb/s
  145. Count of elements                        : 2298
  146. Stream size                              : 22.4 MiB (0%)
  147. Title                                    : Portuguese-PGS
  148. Language                                 : Portuguese
  149. Default                                  : No
  150. Forced                                   : No
  151. Original source medium                   : Blu-ray
  152. Text #6
  153. ID                                       : 9
  154. ID in the original source medium         : 4611 (0x1203)
  155. Format                                   : PGS
  156. Muxing mode                              : zlib
  157. Codec ID                                 : S_HDMV/PGS
  158. Codec ID/Info                            : Picture based subtitle format used on BDs/HD-DVDs
  159. Duration                                 : 12 min 32 s
  160. Bit rate                                 : 5 094 b/s
  161. Count of elements                        : 42
  162. Stream size                              : 468 KiB (0%)
  163. Title                                    : English-FORCED-PGS
  164. Language                                 : English
  165. Default                                  : No
  166. Forced                                   : No
  167. Original source medium                   : Blu-ray
  168. Text #7
  169. ID                                       : 10
  170. ID in the original source medium         : 4611 (0x1203)
  171. Format                                   : PGS
  172. Muxing mode                              : zlib
  173. Codec ID                                 : S_HDMV/PGS
  174. Codec ID/Info                            : Picture based subtitle format used on BDs/HD-DVDs
  175. Duration                                 : 12 min 32 s
  176. Bit rate                                 : 5 094 b/s
  177. Count of elements                        : 42
  178. Stream size                              : 468 KiB (0%)
  179. Title                                    : English-FORCED-PGS
  180. Language                                 : English
  181. Default                                  : No
  182. Forced                                   : No
  183. Original source medium                   : Blu-ray
  184. Menu
  185. 00:00:00.000                             : en:Chapter 01
  186. 00:06:33.851                             : en:Chapter 02
  187. 00:15:25.049                             : en:Chapter 03
  188. 00:21:03.303                             : en:Chapter 04
  189. 00:26:21.121                             : en:Chapter 05
  190. 00:34:27.774                             : en:Chapter 06
  191. 00:39:21.108                             : en:Chapter 07
  192. 00:45:38.360                             : en:Chapter 08
  193. 00:53:41.760                             : en:Chapter 09
  194. 01:00:56.444                             : en:Chapter 10
  195. 01:07:25.416                             : en:Chapter 11
  196. 01:14:35.971                             : en:Chapter 12
  197. 01:22:15.305                             : en:Chapter 13
  198. 01:30:40.601                             : en:Chapter 14
  199. 01:38:36.911                             : en:Chapter 15
  200. 01:51:48.618                             : en:Chapter 16
复制代码






                                       
                                       

                                       
                                       
                                       




龙牌之谜 Journey.to.China.The.Mystery.of.Iron.Mask.2019.1080p.US.BluRay.REMUX.AVC.DTS-HD.MA.5.1-FGT 35.78GB

Journey.to.China.The.Mystery.of.Iron.Mask.2019.1080p.US.BluRay.REMUX.AVC.DTS-HD..zip

90.22 KB, 下载次数: 0, 下载积分: 蓝光币 -2

回复

使用道具 举报

懒得打字嘛,点击右侧快捷回复 【右侧内容,后台自定义】
您需要登录后才可以回帖 登录 | 立即加入

本版积分规则

Archiver|小黑屋| 蓝光电影网 |网站地图

Copyright © 2021 Comsenz Inc. Powered by 蓝光电影网

蓝光电影网

本站内容由用户自主分享和转载自互联网,转载目的在于传递更多信息,并不代表本网赞同其观点和对其真实性负责。

如有侵权、违反国家法律政策行为,请联系我们,我们会第一时间及时清除和处理!

举报反馈邮箱:[email protected]

快速回复 返回顶部 返回列表