找回密码

蓝光电影网

查看: 21|回复: 0

[其他] 驯龙骑士 Justin.and.the.Knights.of.Valour.2013.1080p.BluRay.x264.DTS-FGT 9.49GB

[复制链接]
蓝光币
519
发表于 2020-9-22 11:40:24 | 显示全部楼层 |阅读模式


◎译  名 驯龙骑士/Justin and the Knights of Valour/天平与剑/戈洛尔:天平与剑/渣斯汀大使命(港)/贾斯汀出使命(台)/铁剑骑勇
◎片  名 Justin y la Espada del Valor
◎年  代 2013
◎产  地 西班牙
◎类  别 动画 / 冒险
◎语  言 英语
◎上映日期 2013-09-20(西班牙) / 2014-03-28(中国大陆)
◎IMDb评分  6/10 from 5590 users
◎IMDb链接  https://www.imdb.com/title/tt1639826/
◎豆瓣评分 5.9/10 from 8507 users
◎豆瓣链接 https://movie.douban.com/subject/5153144/
◎片  长 90分钟
◎导  演 曼努埃尔·西西里阿 Manuel Sicilia
◎编  剧 马修·雅各布斯 Matthew Jacobs / 曼努埃尔·西西里阿 Manuel Sicilia
◎主  演 安东尼奥·班德拉斯 Antonio Banderas
       詹姆斯·科兹莫 James Cosmo
       迈克尔·卡尔金 Michael Culkin
       查尔斯·丹斯 Charles Dance
       塔姆欣·伊格顿 Tamsin Egerton
       鲁伯特·艾弗雷特 Rupert Everett
       弗莱迪·海默 Freddie Highmore
       史蒂文·休斯 Stephen Hughes
       巴瑞·哈姆弗莱斯 Barry Humphries
       劳埃德·哈钦森 Lloyd Hutchinson
       阿尔弗雷德·莫里纳 Alfred Molina
       西尔莎·罗南 Saoirse Ronan
       马克·斯特朗 Mark Strong
       大卫·威廉姆斯 David Walliams
       朱丽·沃特斯 Julie Walters
       奥莉维亚·威廉姆斯 Olivia Williams
       蒂比·海德莉 Tippi Hedren
       古明华 Ming-Wah Koo
       梅兰尼·格里菲斯 Melanie Griffith
       达科塔·约翰逊 Dakota Johnson
       郭书瑶 Shu-yau Kuo
◎标  签 动画 | 西班牙 | 西班牙动画 | 动画片 | 2013 | 冒险 | 童话 | 2014
◎简  介


  耸峙于中世纪的加布莱尼亚王国,已经是骑士辈出的勇者之乡,但现现在司法已占据绝对的统治职位,舞刀弄剑不再遭到表扬,精通法令的人材会遭到尊重。消瘦青年贾斯汀(弗莱迪·海默 Freddie Highmore 配音)是一位著名律师的儿子,他不愿像父亲那样走上法令的门路,而是希望成为爷爷罗兰爵士那样的传奇骑士。在祖母的激励下,贾斯汀踏上了追随胡想的冒险旅程。路上他结识了酒吧女孩塔莉娅(西尔莎·罗南 Saoirse Ronan 配音)、怪怪巫师梅尔的您朋友,骑士的修行路上布满应战。
  
  与此同时,贾斯汀地点的王国内,一伙罪行之徒正静静实行着一系列邪恶的计划。命运将匡扶正义的使命托付在贾斯汀的手中……
◎获奖情况
  第28届西班牙戈雅奖 ?(2014)
  最好动画片(提名) 安东尼奥·班德拉斯?/?MarcelinoAlmansa?/?KerryFulton
  1. Video
  2. ID                                       : 1
  3. Format                                   : AVC
  4. Format/Info                              : Advanced Video Codec
  5. Format profile                           : [email protected]
  6. Format settings, CABAC                   : Yes
  7. Format settings, ReFrames                : 5 frames
  8. Codec ID                                 : V_MPEG4/ISO/AVC
  9. Duration                                 : 1h 35mn
  10. Bit rate                                 : 12.4 Mbps
  11. Width                                    : 1 920 pixels
  12. Height                                   : 804 pixels
  13. Display aspect ratio                     : 2.40:1
  14. Frame rate mode                          : Constant
  15. Frame rate                               : 24.000 fps
  16. Color space                              : YUV
  17. Chroma subsampling                       : 4:2:0
  18. Bit depth                                : 8 bits
  19. Scan type                                : Progressive
  20. Bits/(Pixel*Frame)                       : 0.334
  21. Stream size                              : 8.29 GiB (87%)
  22. Writing library                          : x264 core 142 r2431+42 c69a006 tMod [[email protected] X86_64]
  23. Encoding settings                        : cabac=1 / ref=5 / deblock=1:-3:-3 / analyse=0x3:0x133 / me=tesa / subme=10 / psy=1 / fade_compensate=0.00 / psy_rd=0.70:0.00 / mixed_ref=1 / me_range=24 / chroma_me=1 / trellis=2 / 8x8dct=1 / cqm=0 / deadzone=21,11 / fast_pskip=0 / chroma_qp_offset=-2 / threads=12 / lookahead_threads=1 / sliced_threads=0 / nr=0 / decimate=0 / interlaced=0 / bluray_compat=0 / constrained_intra=0 / fgo=0 / bframes=5 / b_pyramid=2 / b_adapt=2 / b_bias=0 / direct=3 / weightb=1 / open_gop=0 / weightp=2 / keyint=250 / keyint_min=24 / scenecut=40 / intra_refresh=0 / rc_lookahead=250 / rc=crf / mbtree=0 / crf=14.0000 / qcomp=0.65 / qpmin=0:0:0 / qpmax=69:69:69 / qpstep=4 / vbv_maxrate=62500 / vbv_bufsize=78125 / crf_max=0.0 / nal_hrd=none / filler=0 / ip_ratio=1.40 / pb_ratio=1.20 / aq=4:0.90 / aq-sensitivity=10.00 / aq-factor=1.00:1.00:1.00 / aq2=0 / aq3=0 / zones=17060,19655,crf=11/21774,21909,crf=13/34390,34834,crf=13/48605,48706,crf=13/70309,76893,crf=13/93992,95337,crf=13/111168,111518,crf=13/112713,112906,crf=13/115906,120233,crf=13
  24. Default                                  : Yes
  25. Forced                                   : No
  26. Audio
  27. ID                                       : 2
  28. Format                                   : DTS
  29. Format/Info                              : Digital Theater Systems
  30. Mode                                     : 16
  31. Format settings, Endianness              : Big
  32. Codec ID                                 : A_DTS
  33. Duration                                 : 1h 35mn
  34. Bit rate mode                            : Constant
  35. Bit rate                                 : 1 509 Kbps
  36. Channel(s)                               : 6 channels
  37. Channel positions                        : Front: L C R, Side: L R, LFE
  38. Sampling rate                            : 48.0 KHz
  39. Frame rate                               : 93.750 fps (512 spf)
  40. Bit depth                                : 24 bits
  41. Compression mode                         : Lossy
  42. Stream size                              : 1.01 GiB (11%)
  43. Language                                 : English
  44. Default                                  : Yes
  45. Forced                                   : No
  46. Text #1
  47. ID                                       : 3
  48. Format                                   : UTF-8
  49. Codec ID                                 : S_TEXT/UTF8
  50. Codec ID/Info                            : UTF-8 Plain Text
  51. Language                                 : English
  52. Default                                  : No
  53. Forced                                   : No
  54. Text #2
  55. ID                                       : 4
  56. Format                                   : UTF-8
  57. Codec ID                                 : S_TEXT/UTF8
  58. Codec ID/Info                            : UTF-8 Plain Text
  59. Language                                 : Danish
  60. Default                                  : No
  61. Forced                                   : No
  62. Text #3
  63. ID                                       : 5
  64. Format                                   : UTF-8
  65. Codec ID                                 : S_TEXT/UTF8
  66. Codec ID/Info                            : UTF-8 Plain Text
  67. Language                                 : Finnish
  68. Default                                  : No
  69. Forced                                   : No
  70. Text #4
  71. ID                                       : 6
  72. Format                                   : UTF-8
  73. Codec ID                                 : S_TEXT/UTF8
  74. Codec ID/Info                            : UTF-8 Plain Text
  75. Language                                 : Norwegian
  76. Default                                  : No
  77. Forced                                   : No
  78. Text #5
  79. ID                                       : 7
  80. Format                                   : UTF-8
  81. Codec ID                                 : S_TEXT/UTF8
  82. Codec ID/Info                            : UTF-8 Plain Text
  83. Language                                 : Swedish
  84. Default                                  : No
  85. Forced                                   : No
  86. Menu
  87. 00:00:00.000                             : :00:00:00.000
  88. 00:11:51.458                             : :00:11:51.458
  89. 00:24:29.667                             : :00:24:29.667
  90. 00:37:47.625                             : :00:37:47.625
  91. 00:48:51.333                             : :00:48:51.333
  92. 01:04:26.292                             : :01:04:26.292
  93. 01:17:06.667                             : :01:17:06.667
  94. 01:30:08.875                             : :01:30:08.875
复制代码








                                       
                                       

                                       
                                       
                                       




回复

使用道具 举报

懒得打字嘛,点击右侧快捷回复 【右侧内容,后台自定义】
您需要登录后才可以回帖 登录 | 立即加入

本版积分规则

Archiver|小黑屋| 蓝光电影网 |网站地图

Copyright © 2021 Comsenz Inc. Powered by 蓝光电影网

蓝光电影网

本站内容由用户自主分享和转载自互联网,转载目的在于传递更多信息,并不代表本网赞同其观点和对其真实性负责。

如有侵权、违反国家法律政策行为,请联系我们,我们会第一时间及时清除和处理!

举报反馈邮箱:[email protected]

快速回复 返回顶部 返回列表