找回密码

蓝光电影网

查看: 8|回复: 0

[喜剧] 一百样东西 100.Things.2018.GERMAN.1080p.BluRay.REMUX.AVC.DTS-HD.MA.5.1-FGT 30.00GB

[复制链接]
蓝光币
515
发表于 2019-5-30 22:29:54 | 显示全部楼层 |阅读模式


◎译  名 一百样工具 / 100 things
◎片  名 100 Dinge
◎年  代 2018
◎产  地 德国
◎类  别 笑剧
◎语  言 德语
◎上映日期 2018-12-06(德国)
◎IMDb评分  6.5/10 from 755 users
◎IMDb链接  http://www.imdb.com/title/tt8129794
◎豆瓣评分 0/10 from 0 users
◎豆瓣链接 https://movie.douban.com/subject/30172751/
◎片  长 111分钟(德国)
◎导  演 弗洛里安·大卫·菲茨 Florian David Fitz
◎主  演 马提亚斯·施维赫夫 Matthias Schweigh?fer
      弗洛里安·大卫·菲茨 Florian David Fitz
      Artjom Gilz

◎标  签 德国 | 德国电影 | 笑剧 | MatthiasSchweigh?fer | 电影 | 2018 | 柏林 | 恋爱
◎简  介  
  Best friends Toni and Paul decide to relinquish all of their belongings for 100 days, whereby they receive one of their items back on each day. During this challenge the two realize, that the only thing they cannot be without is their friendship. A story about contemporary materialism and the quest for the truely important things in life.
  1. Video
  2. ID                                       : 1
  3. Format                                   : AVC
  4. Format/Info                              : Advanced Video Codec
  5. Format profile                           : [email protected]
  6. Format settings                          : CABAC / 3 Ref Frames
  7. Format settings, CABAC                   : Yes
  8. Format settings, ReFrames                : 3 frames
  9. Codec ID                                 : V_MPEG4/ISO/AVC
  10. Duration                                 : 1 h 50 min
  11. Bit rate mode                            : Variable
  12. Bit rate                                 : 34.8 Mb/s
  13. Maximum bit rate                         : 37.0 Mb/s
  14. Width                                    : 1 920 pixels
  15. Height                                   : 1 080 pixels
  16. Display aspect ratio                     : 16:9
  17. Frame rate mode                          : Constant
  18. Frame rate                               : 23.976 (24000/1001) FPS
  19. Color space                              : YUV
  20. Chroma subsampling                       : 4:2:0
  21. Bit depth                                : 8 bits
  22. Scan type                                : Progressive
  23. Bits/(Pixel*Frame)                       : 0.701
  24. Stream size                              : 27.0 GiB (90%)
  25. Title                                    : 100.Things.2018.GERMAN.1080p.BluRay.REMUX.AVC.DTS-HD.MA.5.1-FGT
  26. Language                                 : English
  27. Default                                  : No
  28. Forced                                   : No
  29. Audio #1
  30. ID                                       : 2
  31. Format                                   : DTS XLL
  32. Format/Info                              : Digital Theater Systems
  33. Commercial name                          : DTS-HD Master Audio
  34. Codec ID                                 : A_DTS
  35. Duration                                 : 1 h 50 min
  36. Bit rate mode                            : Variable
  37. Bit rate                                 : 3 688 kb/s
  38. Channel(s)                               : 6 channels
  39. Channel layout                           : C L R Ls Rs LFE
  40. Sampling rate                            : 48.0 kHz
  41. Frame rate                               : 93.750 FPS (512 SPF)
  42. Bit depth                                : 24 bits
  43. Compression mode                         : Lossless
  44. Stream size                              : 2.86 GiB (10%)
  45. Title                                    : 100.Things.2018.GERMAN.1080p.BluRay.REMUX.AVC.DTS-HD.MA.5.1-FGT
  46. Language                                 : German
  47. Default                                  : Yes
  48. Forced                                   : No
  49. Audio #2
  50. ID                                       : 3
  51. Format                                   : AC-3
  52. Format/Info                              : Audio Coding 3
  53. Commercial name                          : Dolby Digital
  54. Codec ID                                 : A_AC3
  55. Duration                                 : 1 h 50 min
  56. Bit rate mode                            : Constant
  57. Bit rate                                 : 192 kb/s
  58. Channel(s)                               : 2 channels
  59. Channel layout                           : L R
  60. Sampling rate                            : 48.0 kHz
  61. Frame rate                               : 31.250 FPS (1536 SPF)
  62. Bit depth                                : 16 bits
  63. Compression mode                         : Lossy
  64. Stream size                              : 152 MiB (0%)
  65. Title                                    : 100.Things.2018.GERMAN.1080p.BluRay.REMUX.AVC.DTS-HD.MA.5.1-FGT
  66. Language                                 : German
  67. Service kind                             : Complete Main
  68. Default                                  : No
  69. Forced                                   : No
  70. Text #1
  71. ID                                       : 4
  72. Format                                   : UTF-8
  73. Codec ID                                 : S_TEXT/UTF8
  74. Codec ID/Info                            : UTF-8 Plain Text
  75. Duration                                 : 1 h 45 min
  76. Bit rate                                 : 58 b/s
  77. Count of elements                        : 1532
  78. Stream size                              : 45.1 KiB (0%)
  79. Title                                    : English-SRT
  80. Language                                 : English
  81. Default                                  : Yes
  82. Forced                                   : No
  83. Text #2
  84. ID                                       : 5
  85. Format                                   : PGS
  86. Muxing mode                              : zlib
  87. Codec ID                                 : S_HDMV/PGS
  88. Codec ID/Info                            : Picture based subtitle format used on BDs/HD-DVDs
  89. Duration                                 : 1 h 50 min
  90. Bit rate                                 : 38.8 kb/s
  91. Count of elements                        : 3520
  92. Stream size                              : 30.6 MiB (0%)
  93. Title                                    : German-PGS
  94. Language                                 : German
  95. Default                                  : No
  96. Forced                                   : No
  97. Text #3
  98. ID                                       : 6
  99. Format                                   : PGS
  100. Muxing mode                              : zlib
  101. Codec ID                                 : S_HDMV/PGS
  102. Codec ID/Info                            : Picture based subtitle format used on BDs/HD-DVDs
  103. Duration                                 : 1 h 45 min
  104. Bit rate                                 : 36.8 kb/s
  105. Count of elements                        : 3064
  106. Stream size                              : 27.8 MiB (0%)
  107. Title                                    : English-PGS
  108. Language                                 : English
  109. Default                                  : No
  110. Forced                                   : No
  111. Menu
  112. 00:00:00.000                             : en:Chapter 01
  113. 00:08:41.938                             : en:Chapter 02
  114. 00:19:55.819                             : en:Chapter 03
  115. 00:30:08.056                             : en:Chapter 04
  116. 00:41:41.665                             : en:Chapter 05
  117. 00:51:22.037                             : en:Chapter 06
  118. 01:01:13.169                             : en:Chapter 07
  119. 01:09:07.726                             : en:Chapter 08
  120. 01:19:33.018                             : en:Chapter 09
  121. 01:26:49.078                             : en:Chapter 10
  122. 01:33:38.529                             : en:Chapter 11
  123. 01:38:46.462                             : en:Chapter 12
复制代码






                                       
                                       

                                       
                                       
                                       




回复

使用道具 举报

懒得打字嘛,点击右侧快捷回复 【右侧内容,后台自定义】
您需要登录后才可以回帖 登录 | 立即加入

本版积分规则

Archiver|小黑屋| 蓝光电影网 |网站地图

Copyright © 2021 Comsenz Inc. Powered by 蓝光电影网

蓝光电影网

本站内容由用户自主分享和转载自互联网,转载目的在于传递更多信息,并不代表本网赞同其观点和对其真实性负责。

如有侵权、违反国家法律政策行为,请联系我们,我们会第一时间及时清除和处理!

举报反馈邮箱:[email protected]

快速回复 返回顶部 返回列表